<?xml version="1.0" standalone="no"?>
<!DOCTYPE svg PUBLIC "-//W3C//DTD SVG 1.1//EN" "http://www.w3.org/Graphics/SVG/1.1/DTD/svg11.dtd" >
<svg xmlns="http://www.w3.org/2000/svg">
<metadata></metadata>
<defs>
<font id="kia_mediumregular" horiz-adv-x="1144" >
<font-face units-per-em="2048" ascent="1638" descent="-410" />
<missing-glyph horiz-adv-x="681" />
<glyph horiz-adv-x="0" />
<glyph horiz-adv-x="682" />
<glyph horiz-adv-x="681" />
<glyph unicode=" "  horiz-adv-x="681" />
<glyph unicode="&#x09;" horiz-adv-x="681" />
<glyph unicode="&#xa0;" horiz-adv-x="681" />
<glyph horiz-adv-x="681" />
<glyph horiz-adv-x="681" />
<glyph horiz-adv-x="681" />
<glyph horiz-adv-x="681" />
<glyph horiz-adv-x="681" />
<glyph horiz-adv-x="681" />
<glyph horiz-adv-x="681" />
<glyph horiz-adv-x="681" />
<glyph horiz-adv-x="681" />
<glyph horiz-adv-x="681" />
<glyph horiz-adv-x="681" />
<glyph horiz-adv-x="681" />
<glyph horiz-adv-x="681" />
<glyph horiz-adv-x="681" />
<glyph horiz-adv-x="681" />
<glyph horiz-adv-x="681" />
<glyph horiz-adv-x="681" />
<glyph horiz-adv-x="681" />
<glyph unicode="&#xd;" horiz-adv-x="681" />
<glyph horiz-adv-x="681" />
<glyph horiz-adv-x="681" />
<glyph unicode="&#xa;" horiz-adv-x="681" />
<glyph unicode="&#x9;" horiz-adv-x="681" />
<glyph horiz-adv-x="681" />
<glyph horiz-adv-x="681" />
<glyph horiz-adv-x="681" />
<glyph horiz-adv-x="681" />
<glyph horiz-adv-x="681" />
<glyph horiz-adv-x="681" />
<glyph horiz-adv-x="681" />
<glyph horiz-adv-x="681" />
<glyph unicode="!" horiz-adv-x="591" d="M188 0v213h211v-213h-211zM193 1491h210l-24 -1034h-164z" />
<glyph unicode="&#x22;" horiz-adv-x="761" d="M117 1034v457h198v-457h-198zM446 1034v457h199v-457h-199z" />
<glyph unicode="#" horiz-adv-x="1249" d="M53 459v164h244l41 260h-229v164h258l67 426h182l-67 -426h258l67 426h183l-68 -426h209v-164h-235l-43 -260h223v-164h-248l-72 -449h-182l72 449h-258l-72 -449h-184l73 449h-219zM479 623h258l43 260h-258z" />
<glyph unicode="$" horiz-adv-x="1187" d="M80 1090q0 174 125 268q100 76 299 90v149h194v-149q59 -4 121 -14q111 -16 213 -50v-139q-127 29 -231 39q-51 4 -103 6v-469q80 -23 148 -45q86 -31 144.5 -75t89 -104t30.5 -146q0 -215 -141 -322q-106 -80 -271 -98v-183h-194v181q-16 2 -33 2q-57 6 -119.5 15 t-125 22.5t-120.5 31.5v140q127 -25 246 -39q80 -10 152 -15v510q-82 23 -150 47q-88 33 -148.5 79t-93 110.5t-32.5 157.5zM283 1094q0 -66 21.5 -105t65.5 -64.5t113 -45.5l21 -7v418q-96 -10 -148 -45q-74 -47 -73 -151zM698 197q78 14 127 51q80 61 80 198 q0 55 -21.5 92t-65 63t-111.5 44q-4 2 -9 4v-452z" />
<glyph unicode="%" horiz-adv-x="1808" d="M84 1087q0 92 23.5 168t68.5 129.5t107.5 83t142.5 29.5q160 0 250 -111.5t90 -298.5q0 -186 -90 -291.5t-250 -105.5t-251 103.5t-91 293.5zM279 1094q0 -131 30.5 -192.5t116.5 -61.5t116.5 61.5t30.5 192.5q0 129 -31.5 189t-115.5 60t-115.5 -60t-31.5 -189zM303 -33 l987 1546h207l-985 -1546h-209zM1042 389q0 92 24 168t69 129t107.5 83t141.5 30q160 0 250 -112t90 -298t-90 -291.5t-250 -105.5t-251 103.5t-91 293.5zM1237 395q0 -131 30.5 -192.5t116.5 -61.5t117 61.5t31 192.5q0 129 -32 189.5t-116 60.5t-115.5 -60.5t-31.5 -189.5 z" />
<glyph unicode="&#x26;" horiz-adv-x="1357" d="M78 406q0 82 23.5 146t66.5 115.5t101.5 91.5t127.5 75q-70 82 -102.5 157.5t-32.5 159.5q0 92 30 157.5t81 107.5t119.5 61.5t148.5 19.5q166 0 261 -84t95 -233q0 -78 -24.5 -138.5t-67.5 -109.5t-99 -87t-120 -69l318 -383q35 66 54 150t25 172h144 q-4 -125 -34 -236.5t-89 -204.5l219 -264h-231l-107 125q-78 -72 -176 -110.5t-217 -38.5q-242 0 -378 105.5t-136 314.5zM276 426q0 -131 77 -207t237 -76q186 0 299 107l-385 457q-47 -25 -88 -53.5t-72 -62.5t-49.5 -75t-18.5 -90zM459 1161q0 -61 24.5 -116.5 t71.5 -110.5l25 -31q41 20 81.5 45t72.5 56.5t52.5 73.5t20.5 98q0 80 -40 127t-128 47q-92 0 -136 -48.5t-44 -140.5z" />
<glyph unicode="'" horiz-adv-x="428" d="M115 1034v457h198v-457h-198z" />
<glyph unicode="(" horiz-adv-x="716" d="M117 707v36q0 143 30.5 271.5t84 240t123 205.5t147.5 170h164q-74 -80 -138.5 -178t-112.5 -208.5t-77 -232.5t-29 -249v-57q0 -123 29 -247t77 -239t112.5 -217t138.5 -184h-164q-78 76 -147.5 171t-123 206.5t-84 239.5t-30.5 272z" />
<glyph unicode=")" horiz-adv-x="716" d="M45 -182q74 80 138.5 178t113.5 209.5t76.5 233.5t27.5 249v57q0 123 -27.5 246t-76.5 237.5t-113.5 217t-138.5 184.5h166q78 -76 147.5 -170t123 -205.5t84 -239.5t30.5 -272v-36q0 -143 -30.5 -271.5t-84 -241t-123 -206.5t-147.5 -170h-166z" />
<glyph unicode="*" horiz-adv-x="796" d="M82 825l194 97l-194 98l70 121l184 -119l-8 225h141l-6 -225l182 119l70 -121l-195 -98l195 -97l-70 -123l-182 121l6 -225h-141l8 225l-184 -121z" />
<glyph unicode="+" horiz-adv-x="1085" d="M100 676v158h359v372h170v-372h356v-158h-356v-373h-170v373h-359z" />
<glyph unicode="," horiz-adv-x="532" d="M76 -168l114 457h230l-174 -457h-170z" />
<glyph unicode="-" horiz-adv-x="1085" d="M143 678v160h799v-160h-799z" />
<glyph unicode="." horiz-adv-x="532" d="M160 0v213h211v-213h-211z" />
<glyph unicode="/" horiz-adv-x="819" d="M72 -162l493 1772h197l-494 -1772h-196z" />
<glyph unicode="0" horiz-adv-x="1300" d="M119 731q0 389 134 580.5t400 191.5q528 0 529 -772q0 -387 -133.5 -570.5t-397.5 -183.5q-262 0 -397 183.5t-135 570.5zM334 731q0 -303 74.5 -448.5t242.5 -145.5t242 145.5t74 448.5q0 295 -74 453.5t-240 158.5q-170 0 -244.5 -158.5t-74.5 -453.5z" />
<glyph unicode="1" horiz-adv-x="860" d="M139 1253v146l459 110v-1509h-207v1294z" />
<glyph unicode="2" horiz-adv-x="1146" d="M117 0v160l346 340q160 156 242.5 290t82.5 273q0 72 -14 124t-50 87t-95.5 51t-149.5 16q-88 0 -175 -14t-175 -39v144q37 14 85 26t100.5 22.5t102.5 16.5t91 6q252 0 374 -103.5t122 -320.5q0 -92 -25 -173t-74 -160.5t-121.5 -162.5t-171.5 -177l-252 -246h699 l-62 -160h-880z" />
<glyph unicode="3" horiz-adv-x="1112" d="M59 47v143q70 -14 125.5 -23t105.5 -15.5t98 -8.5t101 -2q170 0 242 65.5t76 199.5q0 88 -31 144t-87 88t-134 43t-172 11h-74v160h74q63 0 129 11t118 42t86 85t34 140q0 104 -57.5 155.5t-203.5 55.5q-111 0 -200.5 -14t-177.5 -39v144q37 14 85 26t100 22.5 t102.5 16.5t90.5 6q238 0 355 -88t117 -278q0 -72 -21.5 -126.5t-61.5 -96.5t-94.5 -72.5t-119.5 -53.5q78 -12 143 -38.5t112.5 -71.5t74 -111.5t26.5 -160.5q-2 -225 -135 -325.5t-367 -100.5q-121 0 -237.5 19t-221.5 48z" />
<glyph unicode="4" horiz-adv-x="1228" d="M47 309v168l645 1012h256v-1024h273l-62 -156h-211v-309h-198v309h-703zM250 465h500v797z" />
<glyph unicode="5" horiz-adv-x="1073" d="M59 49v144q111 -23 212.5 -36.5t217.5 -13.5q162 0 228.5 81t66.5 222q0 94 -20.5 156t-64.5 96.5t-115.5 48t-175.5 13.5q-72 0 -145 -5t-144 -12l41 746h809l-62 -160h-551l-22 -424q70 14 158 15q252 0 378.5 -114t126.5 -360q0 -229 -121.5 -346.5t-357.5 -117.5 q-123 0 -238.5 19t-220.5 48z" />
<glyph unicode="6" horiz-adv-x="1245" d="M104 686q0 272 50.5 434t132.5 247t186.5 110.5t212.5 25.5q86 0 184.5 -17.5t194.5 -45.5v-144q-104 25 -210.5 42.5t-211.5 7.5q-68 -6 -125 -32t-100 -81t-68.5 -147.5t-27.5 -233.5q100 39 194 55.5t182 16.5q221 0 336 -112t115 -329q0 -113 -31 -206t-94 -159.5 t-157.5 -103.5t-219.5 -37q-145 0 -248.5 48.5t-169 139.5t-95.5 223t-30 298zM319 688q0 -127 11.5 -229.5t46.5 -174t99.5 -109.5t168.5 -38q86 0 142.5 23.5t89 66.5t46 102.5t13.5 133.5q0 90 -16.5 147.5t-52.5 91t-91 47t-133 13.5q-86 0 -166 -14.5t-158 -45.5v-14z " />
<glyph unicode="7" horiz-adv-x="1085" d="M61 1325v164h959v-162l-621 -1327h-213l623 1325h-748z" />
<glyph unicode="8" horiz-adv-x="1280" d="M92 385q0 80 26.5 141.5t72 107.5t101.5 77.5t116 54.5q-55 25 -105.5 58.5t-87.5 77.5t-58.5 99.5t-21.5 122.5q0 86 33 156t96.5 121t156.5 78.5t212 27.5q117 0 210 -27.5t156.5 -78.5t97 -121t33.5 -156q0 -63 -22.5 -117.5t-61 -99.5t-89 -80.5t-105.5 -60.5 q61 -23 121.5 -54.5t108.5 -77.5t77 -107.5t29 -141.5q0 -88 -36 -164t-106.5 -131t-173 -86t-237.5 -31q-133 0 -234.5 31t-170 85t-103.5 130t-35 166zM299 385q0 -119 85 -185.5t251 -66.5t252 71.5t86 180.5q0 59 -25.5 110.5t-71 90.5t-106.5 66.5t-135 39.5 q-152 -27 -244 -106.5t-92 -200.5zM350 1124q0 -115 66.5 -177t218.5 -109q141 47 213 109.5t72 176.5q0 100 -69 162t-216 62q-141 0 -213 -61.5t-72 -162.5z" />
<glyph unicode="9" horiz-adv-x="1253" d="M104 977q0 119 30 216t91.5 165.5t156.5 106.5t224 38q145 0 248.5 -48t169.5 -139t95.5 -223t29.5 -298q0 -172 -21.5 -300t-58.5 -218.5t-88 -147.5t-111.5 -90t-127 -46t-136.5 -16q-102 0 -207.5 17.5t-210.5 50.5v143q90 -20 181.5 -35.5t179.5 -15.5 q78 0 146.5 19.5t119.5 71t82 138.5t35 222q-100 -39 -194.5 -55.5t-182.5 -16.5q-221 0 -336 122t-115 339zM317 997q0 -90 16.5 -151.5t52.5 -98t91 -53t133 -16.5q174 0 324 59q0 133 -8 245t-41 191.5t-98.5 124.5t-178.5 45q-166 0 -228.5 -84.5t-62.5 -261.5z" />
<glyph unicode=":" horiz-adv-x="546" d="M172 281v213h203v-213h-203zM172 975v213h203v-213h-203z" />
<glyph unicode=";" horiz-adv-x="503" d="M29 37l114 457h230l-174 -457h-170zM154 975v213h202v-213h-202z" />
<glyph unicode="&#x3c;" horiz-adv-x="1085" d="M145 680v149l795 508v-194l-596 -389l596 -385v-199z" />
<glyph unicode="=" horiz-adv-x="1085" d="M104 489v158h877v-158h-877zM104 864v156h877v-156h-877z" />
<glyph unicode="&#x3e;" horiz-adv-x="1085" d="M145 170v199l596 385l-596 389v194l795 -508v-149z" />
<glyph unicode="?" horiz-adv-x="962" d="M82 1335v138q102 35 196.5 53t184.5 18q86 0 160.5 -21.5t132 -66.5t90.5 -114.5t33 -165.5q0 -145 -49.5 -259t-170.5 -212q-74 -61 -115.5 -110.5t-41.5 -125.5v-84h-174v104q0 55 14 98.5t42 81.5t68 74.5t93 79.5q59 49 98 121t39 170q0 137 -61.5 203.5t-202.5 66.5 q-78 0 -167 -13t-169 -36zM309 0v213h211v-213h-211z" />
<glyph unicode="@" horiz-adv-x="1867" d="M100 385q0 182 58.5 355t174.5 307.5t288 216.5t397 82q172 0 311 -55.5t236.5 -153t149.5 -231.5t52 -292q0 -147 -32.5 -262.5t-94 -195.5t-149.5 -123t-199 -43q-96 0 -145 30.5t-74 85.5q-45 -47 -116.5 -81.5t-149.5 -34.5q-145 0 -223 95t-78 257q0 135 31.5 245.5 t90 188.5t142.5 120t188 42q66 0 130.5 -22.5t103.5 -53.5q2 10 4 26.5t4 29.5h184l-129 -680q-6 -39 9.5 -63.5t56.5 -24.5q125 0 194.5 116.5t69.5 335.5q0 129 -34.5 237.5t-105.5 187.5t-178.5 123t-250.5 44q-180 0 -317.5 -64.5t-229.5 -174t-138 -256t-46 -312.5 q0 -143 40 -260t121.5 -200t203.5 -128t286 -45q70 0 138.5 10.5t130 25.5t114.5 32.5t92 30.5v-144q-98 -37 -225 -69.5t-252 -32.5q-199 0 -353.5 52t-261 152.5t-163 245t-56.5 328.5zM707 344q0 -90 38.5 -147.5t106.5 -57.5q61 0 116.5 27t90.5 61l92 498 q-25 27 -80 43t-108 16q-68 0 -116 -33.5t-80 -93t-46 -140.5t-14 -173z" />
<glyph unicode="A" horiz-adv-x="1333" d="M31 0l485 1489h305l482 -1489h-209l-123 381h-609l-122 -381h-209zM414 541h506l-252 790z" />
<glyph unicode="B" horiz-adv-x="1316" d="M143 0v1489h566q252 0 357 -98.5t105 -309.5q0 -117 -46 -190.5t-132 -120.5q47 -16 88 -42t71 -66.5t46 -100t16 -145.5q0 -113 -33.5 -192t-96 -129t-151.5 -72.5t-202 -22.5h-588zM350 160h387q141 0 201.5 69.5t60.5 186.5q0 137 -69.5 197.5t-192.5 60.5h-387v-514z M350 834h344q141 0 201.5 65.5t60.5 181.5q0 137 -69.5 192.5t-192.5 55.5h-344v-495z" />
<glyph unicode="C" horiz-adv-x="1189" d="M102 743q0 176 32 316.5t101.5 239t180 151.5t268.5 53q117 0 222.5 -17.5t211.5 -51.5v-140q-55 12 -101 21.5t-92 15.5t-95.5 9t-108.5 3q-109 0 -185.5 -39.5t-125 -116.5t-71 -188.5t-22.5 -255.5q0 -135 22.5 -245.5t71 -187.5t125 -118.5t187.5 -41.5q68 0 120 4 t96 11t87 15t92 19v-140q-111 -35 -220.5 -52t-213.5 -17q-158 0 -268.5 56t-180 155.5t-101.5 238t-32 303.5z" />
<glyph unicode="D" horiz-adv-x="1378" d="M143 0v1489h535q176 0 289.5 -50t180 -143.5t92.5 -225.5t26 -298q0 -170 -24.5 -312.5t-90.5 -244.5t-179.5 -158.5t-293.5 -56.5h-535zM352 162h301q125 0 203 48t121 131t58.5 194.5t15.5 236.5q0 123 -15.5 225.5t-58.5 176t-121 113.5t-203 40h-301v-1165z" />
<glyph unicode="E" horiz-adv-x="1230" d="M143 0v1489h996v-162h-787v-491h752l-62 -164h-690v-510h787v-162h-996z" />
<glyph unicode="F" horiz-adv-x="1171" d="M143 0v1491h957v-162h-748v-493h680l-61 -164h-619v-672h-209z" />
<glyph unicode="G" horiz-adv-x="1396" d="M102 745q0 176 32 316.5t101.5 239t182 150.5t272.5 52q119 0 235.5 -16.5t233.5 -52.5v-144q-210 54 -401 54q-20 0 -39 -1q-217 -8 -309.5 -154.5t-92.5 -443.5q0 -285 96.5 -440t303.5 -155q96 0 198 20q66 14 132 31v452h-404v160h610v-813h-206v66q-68 -25 -140 -46 q-106 -30 -210 -30h-7q-160 0 -272.5 55t-182 155.5t-101.5 240t-32 304.5z" />
<glyph unicode="H" horiz-adv-x="1404" d="M143 0v1489h209v-651h701v651h209v-1489h-209v672h-701v-672h-209z" />
<glyph unicode="I" horiz-adv-x="495" d="M143 0v1489h209v-1489h-209z" />
<glyph unicode="J" horiz-adv-x="808" d="M41 25v139q63 -10 123.5 -16.5t124.5 -6.5q94 0 131 42t37 149v1157h209v-1188q0 -139 -64.5 -221t-226.5 -92q-15 -1 -33 -1t-39 1q-43 2 -90 7t-93 12t-79 18z" />
<glyph unicode="K" horiz-adv-x="1294" d="M143 0v1489h207v-647l647 647h256l-723 -733l734 -756h-263l-651 670v-670h-207z" />
<glyph unicode="L" horiz-adv-x="1105" d="M143 0v1489h209v-1327h713l-61 -162h-861z" />
<glyph unicode="M" horiz-adv-x="1742" d="M143 0v1489h353l376 -1278l375 1278h352v-1489h-200v1339l-379 -1282h-297l-379 1282v-1339h-201z" />
<glyph unicode="N" horiz-adv-x="1437" d="M143 0v1489h338l613 -1331v1331h200v-1489h-338l-614 1335v-1335h-199z" />
<glyph unicode="O" horiz-adv-x="1406" d="M102 737q0 184 31 327.5t100.5 241t184 147.5t282.5 50t284 -50t186.5 -147.5t102.5 -239.5t32 -329q0 -188 -32 -328.5t-102.5 -233.5t-186.5 -139t-284 -46q-166 0 -280.5 47t-185 140t-101.5 233.5t-31 326.5zM317 737q0 -150 19.5 -260t63.5 -183t117.5 -108.5 t182.5 -35.5q111 0 184.5 34.5t120 106t66 182.5t19.5 264q0 147 -19.5 261t-66 191t-120 115.5t-184.5 38.5q-109 0 -182.5 -38.5t-117.5 -115.5t-63.5 -189.5t-19.5 -262.5z" />
<glyph unicode="P" horiz-adv-x="1314" d="M143 0v1489h582q250 0 368.5 -119t118.5 -375t-118.5 -390t-368.5 -134h-375v-471h-207zM350 633h348q154 0 226.5 100.5t72.5 261.5q0 168 -72.5 250t-226.5 82h-348v-694z" />
<glyph unicode="Q" horiz-adv-x="1406" d="M102 737q0 184 31 327.5t100.5 241t184 147.5t282.5 50t284 -50t186.5 -147.5t102.5 -239.5t32 -329q0 -188 -32 -328.5t-102.5 -233.5t-187.5 -140q-16 -6 -35 -12l246 -306h-240l-219 273h-35q-166 0 -280.5 47t-185 140t-101.5 233.5t-31 326.5zM317 737 q0 -150 19.5 -260t63.5 -183t117.5 -108.5t182.5 -35.5q111 0 184.5 34.5t120 106t66 182.5t19.5 264q0 147 -19.5 261t-66 191t-120 115.5t-184.5 38.5q-109 0 -182.5 -38.5t-117.5 -115.5t-63.5 -189.5t-19.5 -262.5z" />
<glyph unicode="R" horiz-adv-x="1337" d="M143 0v1489h580q125 0 217 -24.5t152.5 -80t90 -143.5t29.5 -215q0 -256 -120 -375q-61 -61 -156 -90l313 -561h-229l-295 532h-2h-373v-532h-207zM350 694h346q154 0 227.5 85t73.5 247q0 168 -73.5 234.5t-227.5 66.5h-346v-633z" />
<glyph unicode="S" horiz-adv-x="1206" d="M88 1116q0 184 125 285.5t395 101.5q104 -2 212 -17.5t220 -49.5v-138q-113 27 -210 36t-201 9q-63 0 -123 -7t-106 -30.5t-73.5 -67.5t-27.5 -118q0 -68 20.5 -111.5t63.5 -72.5t110.5 -50.5t163.5 -45.5q111 -29 197 -60.5t144.5 -78t89 -111t30.5 -158.5 q0 -226 -141 -336q-136 -107 -372 -106h-17q-113 2 -238 20.5t-235 52.5v138q119 -23 232.5 -37t238.5 -14q168 0 244.5 65.5t76.5 212.5q0 61 -20.5 101t-63.5 67t-108.5 46.5t-153.5 39.5q-111 27 -199 61.5t-148 86t-93 121t-33 165.5z" />
<glyph unicode="T" horiz-adv-x="1325" d="M51 1325v164h1243l-61 -164h-467v-1325h-209v1325h-506z" />
<glyph unicode="U" horiz-adv-x="1384" d="M143 471v1018h211v-1016q0 -88 23.5 -148.5t67.5 -98.5t105.5 -55t139.5 -17q158 0 249 72.5t91 246.5v1016h211v-1018q0 -131 -36 -222t-106.5 -148.5t-173 -84t-235.5 -26.5t-234.5 26.5t-171 84t-105.5 148.5t-36 222z" />
<glyph unicode="V" horiz-adv-x="1349" d="M39 1489h219l418 -1323l416 1323h219l-484 -1489h-303z" />
<glyph unicode="W" horiz-adv-x="1908" d="M31 1489h213l282 -1335l269 1335h319l268 -1335l283 1335h213l-338 -1489h-317l-269 1327l-268 -1327h-317z" />
<glyph unicode="X" horiz-adv-x="1310" d="M39 0l500 743l-500 746h233l383 -571l385 571h232l-500 -744l500 -745h-234l-385 571l-383 -571h-231z" />
<glyph unicode="Y" horiz-adv-x="1314" d="M31 1489h229l397 -649l402 649h225l-520 -832v-657h-211v657z" />
<glyph unicode="Z" horiz-adv-x="1220" d="M119 0v170l751 1155h-751v164h983v-164l-766 -1161h788l-63 -164h-942z" />
<glyph unicode="[" horiz-adv-x="694" d="M133 -168v1784h490v-160h-295v-1466h295v-158h-490z" />
<glyph unicode="\" horiz-adv-x="1908" d="M31 764v164h166l-105 561h213l92 -561h285l113 561h319l113 -561h282l95 561h213l-105 -561h168v-164h-199l-141 -764h-317l-156 764h-227l-154 -764h-317l-142 764h-196zM424 764l102 -610l123 610h-225zM872 928h162l-80 399zM1260 764l122 -610l101 610h-223z" />
<glyph unicode="]" horiz-adv-x="694" d="M72 -10h297v1466h-297v160h489v-1784h-489v158z" />
<glyph unicode="^" horiz-adv-x="1161" d="M94 848l375 713h213l385 -713h-197l-290 547l-289 -547h-197z" />
<glyph unicode="_" horiz-adv-x="1120" d="M84 -176h952v-148h-952v148z" />
<glyph unicode="`" horiz-adv-x="528" d="M113 1589h219l74 -456h-160z" />
<glyph unicode="a" d="M88 311q0 57 10.5 107.5t38 91.5t75.5 74.5t124 56.5q37 12 81 21.5t100 15.5t127 9t161 3v29q0 72 -22.5 115t-65.5 65.5t-107.5 28.5t-148.5 6q-53 0 -133 -8t-144 -21v139q92 23 189.5 33t189.5 10q96 0 178 -19t142.5 -60t94.5 -103.5t34 -146.5v-758h-197v88 q-115 -59 -211 -80.5t-188 -21.5q-147 0 -237.5 83t-90.5 242zM303 326q0 -197 201 -197q72 0 153.5 28.5t147.5 69.5v324q-135 0 -221 -11.5t-146 -27.5q-70 -20 -102.5 -60t-32.5 -126z" />
<glyph unicode="b" horiz-adv-x="1175" d="M133 0v1479l207 61v-510q88 29 158.5 43t142.5 14q125 0 211 -39.5t138 -113.5t74.5 -176.5t22.5 -227.5t-22.5 -225t-74.5 -172t-137 -110.5t-212 -38.5q-78 0 -145.5 19.5t-155.5 59.5v-63h-207zM340 201q80 -35 149.5 -49.5t128.5 -14.5q80 0 129.5 30t77 82 t37.5 123.5t10 157.5q0 82 -10 155t-37.5 128t-78 87t-128.5 32q-59 0 -126.5 -12.5t-151.5 -40.5v-678z" />
<glyph unicode="c" horiz-adv-x="976" d="M88 541q0 123 25.5 223t81 173t142.5 111.5t212 38.5q86 0 179 -16t171 -47v-139q-76 20 -155.5 32.5t-139.5 12.5q-92 0 -151.5 -26.5t-92 -78t-45 -123t-12.5 -161.5q0 -98 12.5 -172t46 -125t92 -77t152.5 -26q76 0 149.5 12.5t159.5 34.5v-139q-84 -33 -178 -49 t-192 -16q-123 0 -210 39.5t-141.5 112.5t-80 175.5t-25.5 229.5z" />
<glyph unicode="d" horiz-adv-x="1175" d="M88 530q0 125 22.5 227.5t75 176.5t137.5 113.5t212 39.5q72 0 142.5 -14t158.5 -43v449l206 61v-1540h-206v63q-88 -41 -156 -60t-145 -19q-127 0 -212 38.5t-137.5 110.5t-75 172.5t-22.5 224.5zM303 530q0 -86 10.5 -157.5t38 -123.5t76.5 -82t129 -30q59 0 129 14.5 t150 49.5v678q-84 29 -152 41t-127 12q-78 0 -128 -32t-77.5 -87t-38 -128t-10.5 -155z" />
<glyph unicode="e" d="M88 526q0 152 29.5 258.5t91 174t155 98t220.5 30.5q242 0 357.5 -120.5t115.5 -403.5q0 -27 -1 -58.5t-3 -60.5h-756q2 -78 17.5 -135t49 -95t89 -56.5t139.5 -18.5q61 0 113.5 3t102.5 11.5t100 19.5t106 28v-140q-111 -39 -221.5 -57t-221.5 -18q-131 0 -222 32.5 t-149.5 98t-85 168t-26.5 241.5zM297 592h559q-2 88 -14.5 152.5t-42 107.5t-81.5 63.5t-134 20.5q-86 0 -139.5 -20.5t-85 -63.5t-45 -107.5t-17.5 -152.5z" />
<glyph unicode="f" horiz-adv-x="849" d="M31 913v162h227v135q0 68 14.5 126.5t47 102.5t86 71.5t131.5 31.5q18 1 36 1q55 0 111 -9q74 -12 145 -35v-139q-53 12 -109 21.5t-102 9.5q-96 0 -124.5 -42t-28.5 -135v-139h326v-162h-326v-913h-207v913h-227z" />
<glyph unicode="g" horiz-adv-x="1169" d="M88 571q0 125 21.5 221.5t74 162t138.5 99t213 33.5q162 -4 294 -71v59h207v-1143q0 -84 -33.5 -146t-94 -103t-142.5 -60.5t-178 -19.5q-92 0 -186.5 10t-186.5 33v139q63 -12 140 -20.5t130 -8.5q84 0 148.5 6.5t107.5 29t65.5 65.5t22.5 114v123q-76 -35 -150.5 -51 t-146.5 -16q-127 0 -213 38.5t-137 109.5t-72.5 172.5t-21.5 223.5zM303 571q0 -82 8 -153.5t35 -124.5t74 -84t125 -31q133 0 284 58v630q-66 29 -133 48.5t-149 19.5q-78 0 -126 -24.5t-75 -70.5t-35 -114t-8 -154z" />
<glyph unicode="h" horiz-adv-x="1200" d="M133 0v1479l207 61v-553q31 14 59 27q57 25 112.5 41t111 24t118.5 8q166 0 246 -93t80 -234v-760h-207v760q0 94 -48 134t-142 40q-31 0 -75 -9.5t-96.5 -24.5t-109.5 -36l-49 -18v-846h-207z" />
<glyph unicode="i" horiz-adv-x="473" d="M133 0v1075h207v-1075h-207zM133 1229v260h207v-260h-207z" />
<glyph unicode="j" horiz-adv-x="471" d="M-201 -227q37 -8 81 -14.5t85 -8.5h19q77 0 111 30q38 34 38 124v1171h207v-1126q0 -70 -15.5 -130.5t-49 -106.5t-89 -74.5t-135.5 -32.5q-19 -1 -39 -1q-108 0 -213 29v140zM133 1229v260h207v-260h-207z" />
<glyph unicode="k" horiz-adv-x="1081" d="M133 0v1479l207 61v-911l465 446h256l-545 -524l549 -551h-256l-469 469v-469h-207z" />
<glyph unicode="l" horiz-adv-x="473" d="M133 0v1479l207 61v-1540h-207z" />
<glyph unicode="m" horiz-adv-x="1892" d="M133 0v1034l207 62v-95q12 6 27 13q57 25 112.5 41t110.5 24t119 8q166 0 245 -94q8 -8 15 -18q117 53 217 80q114 32 240 32h8q166 0 245.5 -93t79.5 -234v-760h-207v760q0 94 -48 134t-142 40q-37 0 -85 -10.5t-101.5 -26.5t-106.5 -39q-23 -8 -43 -16q8 -39 8 -82 v-760h-207v760q0 94 -48 134t-142 40q-31 0 -75 -9.5t-96 -24.5t-110 -36l-16 -6v-858h-207z" />
<glyph unicode="n" horiz-adv-x="1198" d="M133 0v1034l207 62v-107q29 12 57 25q57 25 112.5 41t111 24t118.5 8q166 0 246 -93t80 -234v-760h-207v760q0 94 -48 134t-142 40q-31 0 -75 -9.5t-96.5 -24.5t-109.5 -36q-25 -8 -47 -18v-846h-207z" />
<glyph unicode="o" horiz-adv-x="1165" d="M88 526q0 131 27.5 235.5t87 176.5t154 110.5t229.5 38.5q133 0 226 -38.5t152.5 -110.5t86 -176.5t26.5 -235.5q0 -125 -26.5 -224t-86 -170t-152.5 -108.5t-226 -37.5t-228.5 37.5t-155 108.5t-87 171t-27.5 223zM303 526q0 -109 16.5 -182.5t51.5 -119.5t88 -66.5 t127 -20.5q68 0 119 20.5t86.5 66.5t53 120t17.5 182q0 223 -70.5 316.5t-205.5 93.5q-147 0 -215 -93t-68 -317z" />
<glyph unicode="p" horiz-adv-x="1173" d="M133 -401v1435l207 62v-80q72 35 145.5 52t153.5 19q127 0 213 -36.5t138 -106.5t74.5 -169t22.5 -222q0 -125 -22.5 -229.5t-74.5 -179t-138 -116.5t-213 -42t-299 55v-381zM340 184q86 -31 150.5 -38t125.5 -9q78 0 128.5 34t79 91t38.5 133t10 158q0 84 -10 153.5 t-37.5 121t-77 79t-129.5 27.5q-76 0 -144 -18.5t-134 -49.5v-682z" />
<glyph unicode="q" horiz-adv-x="1173" d="M86 553q0 123 22.5 222t75 169t138.5 106.5t213 36.5q80 -2 153.5 -19t145.5 -52v59h206v-1415l-206 -61v442q-172 -55 -299 -55t-213 42t-138.5 116.5t-75 179t-22.5 229.5zM301 553q0 -82 10.5 -158t39 -133t78.5 -91t128 -34q61 2 126 9.5t151 37.5v682 q-66 31 -134.5 49.5t-144.5 18.5q-80 0 -129 -27.5t-76.5 -79t-38 -121t-10.5 -153.5z" />
<glyph unicode="r" horiz-adv-x="862" d="M133 0v1034l207 62v-84q31 12 61 22q63 23 128 34t135 13q14 0 28 1q57 0 119 -7v-162q-62 5 -120 5q-87 0 -163 -11q-92 -14 -188 -45v-862h-207z" />
<glyph unicode="s" horiz-adv-x="1056" d="M88 795q0 82 33 138t88 92q55 37 131 51q63 12 133 12q14 0 29 -1q209 -6 407 -55v-141q-102 20 -201.5 32.5t-201.5 12.5q-115 0 -162 -31t-47 -98q0 -39 11 -66.5t40 -47t78 -35t125 -29.5q217 -41 317.5 -117t100.5 -217q0 -166 -123 -237.5t-344 -71.5q-43 0 -99.5 4 t-111.5 12t-104.5 19.5t-82.5 25.5v139q190 -49 379 -49q147 0 212 30t65 122q0 43 -10.5 71.5t-40 48t-82 34t-135.5 30.5q-104 20 -180 47t-126.5 65t-74 89t-23.5 121z" />
<glyph unicode="t" horiz-adv-x="847" d="M31 915v160h225v291l207 61v-352h328v-160h-328v-612q0 -92 28.5 -134t124.5 -42q45 0 101.5 9t109.5 22v-140q-73 -23 -147 -35q-56 -9 -109 -9q-18 0 -36 1q-78 4 -131.5 32t-86 72t-47 102.5t-14.5 125.5v608h-225z" />
<glyph unicode="u" horiz-adv-x="1198" d="M133 309v725l207 62v-801q0 -84 47 -120t137 -36q84 0 166 24.5t168 53.5v858h207v-1075h-207v82q-109 -45 -198 -70.5t-177 -25.5q-72 0 -136 17t-111.5 56t-75 100.5t-27.5 149.5z" />
<glyph unicode="v" horiz-adv-x="1073" d="M20 1075h201l318 -936l317 936h197l-369 -1075h-295z" />
<glyph unicode="w" horiz-adv-x="1679" d="M14 1075h203l256 -934l227 934h285l225 -932l256 932h199l-311 -1075h-291l-221 920l-221 -920h-295z" />
<glyph unicode="x" horiz-adv-x="1089" d="M20 0l414 537l-414 538h222l303 -395l303 395h221l-414 -538l414 -537h-221l-303 393l-303 -393h-222z" />
<glyph unicode="y" horiz-adv-x="1198" d="M133 350v684l207 62v-760q0 -84 47 -118t137 -34q84 0 170 23q82 23 164 49v819h207v-1143q0 -84 -34 -146t-94 -103t-142 -60.5t-179 -19.5q-92 0 -186 10t-186 33v139q63 -12 140 -20.5t130 -8.5q84 0 148.5 6.5t107.5 29t65.5 65.5t22.5 114v150q-104 -43 -194 -68 q-89 -26 -175 -26h-6q-72 0 -136 17t-111.5 56t-75 100.5t-27.5 149.5z" />
<glyph unicode="z" horiz-adv-x="1054" d="M104 0v164l613 751h-608v160h841v-147l-622 -768h643l-62 -160h-805z" />
<glyph unicode="{" horiz-adv-x="860" d="M94 647v152q68 4 114 15t73.5 34.5t40 58.5t12.5 86v385q0 117 62.5 176.5t172.5 59.5h213v-148h-176q-45 0 -64.5 -19.5t-19.5 -66.5v-395q0 -43 -9 -84t-33.5 -74.5t-68.5 -59.5t-114 -40v-6q70 -12 114 -38t68.5 -59.5t33.5 -74.5t9 -84v-397q0 -47 19.5 -66.5 t64.5 -19.5h176v-148h-213q-111 0 -173 59.5t-62 176.5v385q0 51 -12.5 85.5t-40 57.5t-73.5 34t-114 15z" />
<glyph unicode="|" horiz-adv-x="612" d="M203 -168v1784h205v-1784h-205z" />
<glyph unicode="}" horiz-adv-x="860" d="M94 -18h176q45 0 64.5 19t19.5 67v397q0 43 8.5 84t33 74.5t68.5 59.5t116 38v6q-72 14 -116 40t-68.5 59.5t-33 74.5t-8.5 84v395q0 47 -19.5 66.5t-64.5 19.5h-176v148h213q111 0 173.5 -59.5t62.5 -176.5v-385q0 -51 12 -86t40 -58.5t74 -34.5t113 -15v-152 q-68 -4 -113.5 -15t-73.5 -34t-40 -57.5t-12 -85.5v-385q0 -117 -62.5 -176.5t-173.5 -59.5h-213v148z" />
<glyph unicode="~" horiz-adv-x="946" d="M47 715q35 109 109.5 153.5t158.5 44.5q66 0 118 -31.5t93 -66.5q29 -23 58.5 -41t83.5 -18q18 0 37.5 10t37 26.5t31.5 36t25 37.5l96 -71q-20 -57 -51 -95t-66 -61t-72.5 -32t-70.5 -9q-53 0 -99.5 26.5t-86.5 61.5q-35 29 -69 48.5t-83 19.5q-55 0 -94 -37t-60 -70z " />
<glyph unicode="&#xa1;" horiz-adv-x="618" d="M209 1276v213h211v-213h-211zM213 0l23 1032h163l25 -1032h-211z" />
<glyph unicode="&#xa2;" horiz-adv-x="976" d="M74 541q0 123 25.5 223t81 173t141.5 112q72 31 167 36v205h185v-213q18 -4 39 -6q94 -16 172 -47v-139q-76 20 -156 33q-29 4 -55 6v-781q33 4 67 11q74 12 160 34v-139q-84 -33 -178 -49q-25 -4 -49 -6v-217h-185v209q-98 6 -170 37q-86 41 -140 113.5t-79.5 175 t-25.5 229.5zM289 541q0 -98 12 -172t46 -125t91 -78q23 -10 51 -16v770q-29 -6 -51 -17q-59 -27 -92 -78t-45 -122.5t-12 -161.5z" />
<glyph unicode="&#xa3;" horiz-adv-x="1331" d="M82 211q-4 109 70.5 176.5t207.5 67.5q57 0 136 -27q0 53 -10.5 116.5t-26.5 117.5h-295v147h254q-10 23 -22.5 58.5t-25 76.5t-20.5 85t-8 83q0 193 104.5 292t313.5 99q86 0 158.5 -25.5t126 -72.5t84 -114.5t34.5 -153.5h-147q-16 102 -74.5 154t-181.5 52 q-211 0 -211 -219q0 -72 19.5 -146.5t52.5 -168.5h555l-62 -147h-459q23 -86 28 -183.5t-1 -175.5q39 -31 79 -60.5t75.5 -51t67.5 -35t57 -13.5q29 0 54 7.5t47.5 29t41 58t31.5 98.5l137 -39q-23 -82 -47.5 -140.5t-60.5 -95t-85 -54t-118 -17.5q-66 0 -143 38t-187 126 q-41 -76 -106.5 -123t-164.5 -47q-55 0 -105 12t-88 39.5t-60.5 71t-24.5 104.5zM270 213q0 -88 92 -88q43 0 76 36.5t51 102.5q-27 20 -60.5 33.5t-68.5 13.5q-43 0 -66.5 -27.5t-23.5 -70.5z" />
<glyph unicode="&#xa4;" horiz-adv-x="1433" d="M55 1253l105 105q49 -47 97 -94t97 -95q68 61 159 96t194 35h28q14 0 27 -4q92 -10 169 -44.5t136 -90.5q51 49 103.5 99.5t103.5 97.5q25 -27 49 -53l53 -52q-55 -47 -109.5 -96t-109.5 -98q41 -59 66.5 -138t25.5 -173q0 -102 -28.5 -184.5t-75.5 -145.5 q55 -51 112.5 -104.5t110.5 -102.5l-98 -107l-215 215q-68 -61 -160 -97t-190 -36q-94 0 -183.5 32t-154.5 91q-51 -51 -104.5 -103t-102.5 -102l-99 107q53 47 106.5 97t106.5 98q-49 66 -80.5 150.5t-31.5 186.5q0 98 28.5 178t73.5 144q-51 47 -103 95t-106 93zM322 743 q0 -92 31.5 -167.5t85 -129t123 -83t143.5 -29.5q76 0 146.5 28.5t122.5 83t84 130t32 169.5q0 84 -29 158t-80 129t-122 88t-152 33h-2q-82 0 -152 -31.5t-121 -87t-80.5 -130.5t-29.5 -161z" />
<glyph unicode="&#xa5;" horiz-adv-x="1433" d="M90 1509h223l406 -675l397 675h227l-448 -716h395v-148h-473v-133h473v-147h-473v-365h-199v365h-477v147h477v133h-477v148h398z" />
<glyph unicode="&#xa6;" horiz-adv-x="612" d="M203 -170v745h205v-745h-205zM203 870v746h205v-746h-205z" />
<glyph unicode="&#xa7;" horiz-adv-x="1034" d="M74 784q0 82 31.5 138.5t87.5 91.5q-104 74 -105 215q0 82 33 138t88 92t131 50.5t162 12.5q209 -6 407 -56v-141q-102 20 -201.5 32.5t-201.5 12.5q-115 0 -162 -30.5t-47 -98.5q0 -39 11 -66.5t40 -47t78 -35t125 -29.5q217 -41 317.5 -117t100.5 -217q0 -80 -30 -137 t-83 -94q98 -78 98 -213q0 -166 -122.5 -238t-344.5 -72q-43 0 -99 4.5t-111.5 12.5t-104.5 19.5t-82 25.5v139q190 -49 379 -49q147 0 211.5 29.5t64.5 122.5q0 43 -10 71.5t-39.5 48t-82 33.5t-136.5 31q-104 20 -180 47t-126 64.5t-73.5 89t-23.5 120.5zM283 797 q0 -39 11 -67t39.5 -47t78 -34.5t125.5 -30.5q41 -8 76.5 -17t70.5 -19q76 43 76 141q0 43 -10.5 71.5t-40 48t-81.5 34t-136 30.5q-29 6 -56.5 11.5t-52.5 13.5q-53 -16 -76.5 -52t-23.5 -83z" />
<glyph unicode="&#xa8;" horiz-adv-x="1105" d="M176 1313v213h211v-213h-211zM719 1313v213h211v-213h-211z" />
<glyph unicode="&#xa9;" horiz-adv-x="1638" d="M70 737q0 156 56 293t156.5 238.5t237.5 161t297 59.5t297 -59.5t238.5 -161t159 -238.5t57.5 -293t-57.5 -293t-159 -239.5t-238.5 -161.5t-297 -59t-297 59t-237.5 161.5t-156.5 240t-56 292.5zM197 737q0 -141 46 -260t128 -206t195.5 -135t250.5 -48q135 0 250 48 t198 135t130 206t47 260t-47 260t-130 205t-198 133t-250 47q-137 0 -250.5 -47t-195.5 -133t-128 -204.5t-46 -260.5zM463 741q0 186 89 300t261 114q63 0 133 -12.5t129 -34.5v-127q-55 16 -115.5 25.5t-105.5 9.5q-127 0 -173 -69.5t-46 -205.5q0 -147 46 -214.5 t175 -67.5q55 0 111.5 9t119.5 28v-127q-61 -25 -133.5 -37.5t-144.5 -12.5q-170 0 -258 115t-88 307z" />
<glyph unicode="&#xaa;" horiz-adv-x="1024" d="M158 676v141h706v-141h-706zM207 1122q0 74 30.5 127.5t129.5 81.5h-2q41 16 101 22.5t165 6.5v2q0 76 -48 93.5t-139 17.5q-31 0 -82 -5.5t-96 -15.5v113q61 16 123 23t115 7q123 0 200.5 -51t77.5 -160v-462h-145v43q-63 -31 -115.5 -41.5t-105.5 -10.5 q-94 0 -151.5 53.5t-57.5 155.5zM367 1130q0 -98 100 -98q41 0 84 12.5t80 36.5v166q-131 -2 -197 -22q-35 -10 -51 -32t-16 -63z" />
<glyph unicode="&#xab;" horiz-adv-x="1433" d="M115 467v149l651 416v-182l-473 -309l473 -305v-187zM668 467v149l651 416v-182l-473 -309l473 -305v-187z" />
<glyph unicode="&#xac;" horiz-adv-x="1433" d="M33 100v164h1362v-569h-209v405h-1153z" />
<glyph unicode="&#xad;" horiz-adv-x="1024" d="M117 676v158h790v-158h-790z" />
<glyph unicode="&#xae;" horiz-adv-x="1638" d="M70 737q0 156 56 293t156.5 238.5t237.5 161t297 59.5t297 -59.5t238.5 -161t159 -238.5t57.5 -293t-57.5 -293t-159 -239.5t-238.5 -161.5t-297 -59t-297 59t-237.5 161.5t-156.5 240t-56 292.5zM197 737q0 -141 46 -260t128 -206t195.5 -135t250.5 -48q135 0 250 48 t198 135t130 206t47 260t-47 260t-130 205t-198 133t-250 47q-137 0 -250.5 -47t-195.5 -133t-128 -204.5t-46 -260.5zM520 279v913h357q154 0 226.5 -63.5t72.5 -219.5q0 -158 -74 -231q-37 -37 -96 -55l192 -344h-141l-183 327h-227v-327h-127zM647 707h211q184 0 184 202 q0 104 -45 144.5t-139 40.5h-211v-387z" />
<glyph unicode="&#xaf;" horiz-adv-x="1024" d="M164 1571v137h696v-137h-696z" />
<glyph unicode="&#xb0;" horiz-adv-x="913" d="M131 1208q0 154 80 241t246 87q170 0 248.5 -87t78.5 -241q0 -152 -78.5 -238.5t-248.5 -86.5q-166 0 -246 87t-80 238zM285 1208q0 -90 41 -132t131 -42q92 0 133 42t41 132q0 92 -41 134t-133 42q-90 0 -131 -42t-41 -134z" />
<glyph unicode="&#xb1;" horiz-adv-x="1085" d="M100 20v156h883v-156h-883zM100 676v158h359v372h170v-372h356v-158h-356v-373h-170v373h-359z" />
<glyph unicode="&#xb2;" horiz-adv-x="614" d="M45 788v111l193 180q74 74 122 150t48 141q0 68 -33 99.5t-119 31.5q-45 0 -96 -8t-109 -25v113q45 16 110.5 29.5t110.5 13.5q145 0 214 -60.5t69 -185.5q0 -76 -30.5 -139t-78 -119.5t-103.5 -107.5t-107 -103h354l-43 -121h-502z" />
<glyph unicode="&#xb3;" horiz-adv-x="634" d="M35 817v113q86 -16 139 -22.5t111 -6.5q80 0 113.5 28.5t37.5 90.5q0 86 -58.5 110.5t-150.5 24.5h-57v121h57q31 0 63 5t57.5 19.5t42 40t16.5 66.5q0 47 -28 69.5t-93 24.5q-59 0 -112.5 -8t-109.5 -25v113q45 16 110 29.5t112 13.5q268 0 268 -213q0 -70 -33 -112 t-86 -68q68 -23 110 -71t42 -140q0 -129 -76 -185.5t-211 -56.5q-68 0 -135.5 11.5t-128.5 27.5z" />
<glyph unicode="&#xb4;" horiz-adv-x="573" d="M113 1581l127 260h221l-215 -260h-133z" />
<glyph unicode="&#xb5;" horiz-adv-x="1198" d="M133 -389v1423l207 62v-817q4 -72 47 -105q47 -35 137 -35q84 0 166 24.5t168 53.5v858h207v-1075h-207v82q-109 -45 -198 -70.5t-177 -25.5q-72 0 -137 16q-2 2 -6 2v-393h-207z" />
<glyph unicode="&#xb6;" horiz-adv-x="1239" d="M109 1075q0 88 21.5 164t72.5 131t138 87t216 32h465v-1489h-166v1356h-156v-1356h-165v662q-121 8 -203 40.5t-131 86t-70.5 126t-21.5 160.5z" />
<glyph unicode="&#xb7;" horiz-adv-x="643" d="M215 541v233h231v-233h-231z" />
<glyph unicode="&#xb8;" horiz-adv-x="649" d="M145 -268q41 -6 73 -9.5t79 -5.5q39 -2 68.5 8.5t29.5 51.5q0 35 -14 48t-47 13h-160l57 209h127l-22 -113h45q68 0 109.5 -37.5t41.5 -119.5q0 -78 -44 -127t-144 -49q-61 0 -104 5t-95 15v111z" />
<glyph unicode="&#xb9;" horiz-adv-x="462" d="M45 1442v98l307 74v-826h-139v682z" />
<glyph unicode="&#xba;" horiz-adv-x="1024" d="M158 676v141h706v-141h-706zM190 1237q0 166 73 260t245 94q170 0 240.5 -94t70.5 -260q0 -160 -70.5 -252t-240.5 -92q-172 0 -245 92t-73 252zM350 1237q0 -123 38 -171t120 -48q72 0 110.5 48t38.5 171q0 127 -38.5 178t-110.5 51q-82 0 -120 -51t-38 -178z" />
<glyph unicode="&#xbb;" horiz-adv-x="1433" d="M115 49v187l473 305l-473 309v182l651 -416v-149zM668 49v187l473 305l-473 309v182l651 -416v-149z" />
<glyph unicode="&#xbc;" horiz-adv-x="1626" d="M47 1288v98l248 93h80v-885h-154v723zM188 0l1010 1489h176l-1009 -1489h-177zM881 180v117l383 600h170v-596h168l-50 -121h-118v-180h-144v180h-409zM1036 301h254v401z" />
<glyph unicode="&#xbd;" horiz-adv-x="1714" d="M76 1307v118l299 70v-901h-154v737q-35 -4 -76 -12t-69 -12zM147 0l1010 1489h176l-1009 -1489h-177zM1065 0v117l205 200q92 90 139 165t47 151q0 78 -33.5 112.5t-130.5 34.5q-47 0 -102 -10t-117 -27v115q25 8 55.5 17.5t62.5 15.5t62.5 10t55.5 4q305 0 305 -262 q0 -55 -15.5 -104.5t-44 -96.5t-72.5 -97t-102 -105q-35 -35 -59.5 -56.5t-58.5 -58.5h389l-47 -125h-539z" />
<glyph unicode="&#xbe;" horiz-adv-x="1689" d="M57 614v115q90 -18 147.5 -26.5t119.5 -8.5q92 0 128.5 35t39.5 105q0 92 -63.5 121.5t-166.5 29.5h-57v125h57q35 0 70 6t63.5 21.5t47 43t18.5 72.5q0 53 -31 80t-106 29q-59 0 -118 -10.5t-118 -28.5v117q25 8 55.5 17t63.5 15.5t63.5 10.5t53.5 4q147 0 217.5 -54.5 t70.5 -175.5q0 -74 -35.5 -120.5t-95.5 -75.5q78 -23 123 -74t45 -153q-2 -141 -84 -203t-223 -62q-72 0 -144.5 12.5t-140.5 32.5zM303 0l1010 1489h176l-1010 -1489h-176zM946 180v117l383 600h170v-596h168l-49 -121h-119v-180h-143v180h-410zM1102 301h254v401z" />
<glyph unicode="&#xbf;" horiz-adv-x="1259" d="M225 315q0 145 49.5 259t169.5 212q37 31 67 57.5t49.5 53.5t30.5 56.5t11 68.5v84h174v-105q0 -55 -14 -98t-42 -81t-68 -74.5t-93 -79.5q-59 -49 -98 -121t-39 -170q0 -137 61.5 -204t202.5 -67q78 0 167 13.5t169 36.5v-138q-102 -35 -196.5 -53t-184.5 -18 q-86 0 -160.5 21.5t-132 66.5t-90.5 114.5t-33 165.5zM584 1278v213h211v-213h-211z" />
<glyph unicode="&#xc0;" horiz-adv-x="1333" d="M31 0l485 1489h305l482 -1489h-209l-123 381h-609l-122 -381h-209zM414 541h506l-252 790zM494 1841h221l127 -260h-133z" />
<glyph unicode="&#xc1;" horiz-adv-x="1333" d="M31 0l485 1489h305l482 -1489h-209l-123 381h-609l-122 -381h-209zM414 541h506l-252 790zM494 1581l127 260h221l-215 -260h-133z" />
<glyph unicode="&#xc2;" horiz-adv-x="1333" d="M31 0l485 1489h305l482 -1489h-209l-123 381h-609l-122 -381h-209zM391 1581l209 260h137l217 -260h-166l-120 162l-119 -162h-158zM414 541h506l-252 790z" />
<glyph unicode="&#xc3;" horiz-adv-x="1333" d="M31 0l485 1489h305l482 -1489h-209l-123 381h-609l-122 -381h-209zM389 1683q23 72 73 102t105 30q43 0 77 -21.5t63 -44.5q20 -14 39.5 -26.5t54.5 -12.5q25 0 50.5 24.5t35.5 49.5l65 -72q-29 -78 -78 -104.5t-96 -26.5q-35 0 -64.5 17.5t-58.5 39.5q-23 18 -45 31.5 t-55 13.5q-37 0 -62.5 -23.5t-39.5 -45.5zM414 541h506l-252 790z" />
<glyph unicode="&#xc4;" horiz-adv-x="1333" d="M31 0l485 1489h305l482 -1489h-209l-123 381h-609l-122 -381h-209zM358 1581v227h207v-227h-207zM414 541h506l-252 790zM770 1581v227h207v-227h-207z" />
<glyph unicode="&#xc5;" horiz-adv-x="1333" d="M31 0l485 1489h305l482 -1489h-209l-123 381h-609l-122 -381h-209zM414 541h506l-252 790zM510 1700q0 70 46 109.5t112 39.5q70 0 113.5 -40t43.5 -109q0 -63 -44 -103.5t-113 -40.5q-66 0 -112 40.5t-46 103.5zM596 1700q0 -29 21.5 -46.5t50.5 -17.5t49 17.5t20 46.5 q0 35 -20.5 50t-48.5 15q-29 0 -50.5 -15t-21.5 -50z" />
<glyph unicode="&#xc6;" horiz-adv-x="1843" d="M41 0l711 1489h1003v-162h-668v-491h635l-61 -164h-574v-510h668v-162h-868v381h-453l-180 -381h-213zM510 541h377v792z" />
<glyph unicode="&#xc7;" horiz-adv-x="1189" d="M102 743q0 176 32 316.5t101.5 239t180 151.5t268.5 53q117 0 222.5 -17.5t211.5 -51.5v-140q-55 12 -101 21.5t-92 15.5t-95.5 9t-108.5 3q-109 0 -185.5 -39.5t-125 -116.5t-71 -188.5t-22.5 -255.5q0 -135 22.5 -245.5t71 -187.5t125 -118.5t187.5 -41.5q68 0 120 4 t96 11t87 15t92 19v-140q-111 -35 -221 -53q-100 -14 -199 -16l-10 -56h45q68 0 110 -37.5t42 -119.5q0 -78 -44 -127t-145 -49q-61 0 -104 5t-94 15v111q41 -6 72.5 -9.5t78.5 -5.5q39 -2 69 8.5t30 51.5q0 35 -14.5 48t-47.5 13h-160l43 160q-86 12 -153 47 q-111 57 -180.5 156.5t-101.5 238t-32 303.5z" />
<glyph unicode="&#xc8;" horiz-adv-x="1230" d="M143 0v1489h996v-162h-787v-491h752l-62 -164h-690v-510h787v-162h-996zM391 1841h221l127 -260h-133z" />
<glyph unicode="&#xc9;" horiz-adv-x="1230" d="M143 0v1489h996v-162h-787v-491h752l-62 -164h-690v-510h787v-162h-996zM494 1581l127 260h221l-215 -260h-133z" />
<glyph unicode="&#xca;" horiz-adv-x="1230" d="M143 0v1489h996v-162h-787v-491h752l-62 -164h-690v-510h787v-162h-996zM391 1581l209 260h137l217 -260h-166l-120 162l-119 -162h-158z" />
<glyph unicode="&#xcb;" horiz-adv-x="1230" d="M143 0v1489h996v-162h-787v-491h752l-62 -164h-690v-510h787v-162h-996zM358 1581v227h207v-227h-207zM770 1581v227h207v-227h-207z" />
<glyph unicode="&#xcc;" horiz-adv-x="495" d="M0 1841h221l127 -260h-133zM143 0v1489h209v-1489h-209z" />
<glyph unicode="&#xcd;" horiz-adv-x="495" d="M143 0v1489h209v-1489h-209zM147 1581l127 260h222l-215 -260h-134z" />
<glyph unicode="&#xce;" horiz-adv-x="495" d="M-33 1581l209 260h137l217 -260h-165l-121 162l-119 -162h-158zM143 0v1489h209v-1489h-209z" />
<glyph unicode="&#xcf;" horiz-adv-x="528" d="M-4 1581v227h207v-227h-207zM164 0v1489h209v-1489h-209zM326 1581v227h206v-227h-206z" />
<glyph unicode="&#xd0;" horiz-adv-x="1626" d="M82 672v164h260v653h535q176 0 289.5 -50t180 -143.5t92 -225.5t25.5 -298q0 -170 -24.5 -312.5t-90 -244.5t-179 -158.5t-293.5 -56.5h-535v672h-260zM551 162h301q125 0 203 48t121 131t58 194.5t15 236.5q0 123 -15 225.5t-58 176t-121 113.5t-203 40h-301v-491h307 l-61 -164h-246v-510z" />
<glyph unicode="&#xd1;" horiz-adv-x="1437" d="M143 0v1489h338l613 -1331v1331h200v-1489h-338l-614 1335v-1335h-199zM449 1683q23 72 72.5 102t105.5 30q43 0 76.5 -21.5t62.5 -44.5q20 -14 39.5 -26.5t54.5 -12.5q25 0 50.5 24.5t35.5 49.5l66 -72q-29 -78 -78 -104.5t-96 -26.5q-35 0 -65 17.5t-58 39.5 q-23 18 -45.5 31.5t-55.5 13.5q-37 0 -62.5 -23.5t-39.5 -45.5z" />
<glyph unicode="&#xd2;" horiz-adv-x="1406" d="M102 737q0 184 31 327.5t100.5 241t184 147.5t282.5 50t284 -50t186.5 -147.5t102.5 -239.5t32 -329q0 -188 -32 -328.5t-102.5 -233.5t-186.5 -139t-284 -46q-166 0 -280.5 47t-185 140t-101.5 233.5t-31 326.5zM317 737q0 -150 19.5 -260t63.5 -183t117.5 -108.5 t182.5 -35.5q111 0 184.5 34.5t120 106t66 182.5t19.5 264q0 147 -19.5 261t-66 191t-120 115.5t-184.5 38.5q-109 0 -182.5 -38.5t-117.5 -115.5t-63.5 -189.5t-19.5 -262.5zM494 1841h221l127 -260h-133z" />
<glyph unicode="&#xd3;" horiz-adv-x="1406" d="M102 737q0 184 31 327.5t100.5 241t184 147.5t282.5 50t284 -50t186.5 -147.5t102.5 -239.5t32 -329q0 -188 -32 -328.5t-102.5 -233.5t-186.5 -139t-284 -46q-166 0 -280.5 47t-185 140t-101.5 233.5t-31 326.5zM317 737q0 -150 19.5 -260t63.5 -183t117.5 -108.5 t182.5 -35.5q111 0 184.5 34.5t120 106t66 182.5t19.5 264q0 147 -19.5 261t-66 191t-120 115.5t-184.5 38.5q-109 0 -182.5 -38.5t-117.5 -115.5t-63.5 -189.5t-19.5 -262.5zM535 1581l127 260h221l-215 -260h-133z" />
<glyph unicode="&#xd4;" horiz-adv-x="1406" d="M102 737q0 184 31 327.5t100.5 241t184 147.5t282.5 50t284 -50t186.5 -147.5t102.5 -239.5t32 -329q0 -188 -32 -328.5t-102.5 -233.5t-186.5 -139t-284 -46q-166 0 -280.5 47t-185 140t-101.5 233.5t-31 326.5zM317 737q0 -150 19.5 -260t63.5 -183t117.5 -108.5 t182.5 -35.5q111 0 184.5 34.5t120 106t66 182.5t19.5 264q0 147 -19.5 261t-66 191t-120 115.5t-184.5 38.5q-109 0 -182.5 -38.5t-117.5 -115.5t-63.5 -189.5t-19.5 -262.5zM424 1581l209 260h137l217 -260h-166l-121 162l-118 -162h-158z" />
<glyph unicode="&#xd5;" horiz-adv-x="1406" d="M102 737q0 184 31 327.5t100.5 241t184 147.5t282.5 50t284 -50t186.5 -147.5t102.5 -239.5t32 -329q0 -188 -32 -328.5t-102.5 -233.5t-186.5 -139t-284 -46q-166 0 -280.5 47t-185 140t-101.5 233.5t-31 326.5zM317 737q0 -150 19.5 -260t63.5 -183t117.5 -108.5 t182.5 -35.5q111 0 184.5 34.5t120 106t66 182.5t19.5 264q0 147 -19.5 261t-66 191t-120 115.5t-184.5 38.5q-109 0 -182.5 -38.5t-117.5 -115.5t-63.5 -189.5t-19.5 -262.5zM410 1683q23 72 72.5 102t105.5 30q43 0 76.5 -21.5t62.5 -44.5q20 -14 39.5 -26.5t54.5 -12.5 q25 0 50.5 24.5t35.5 49.5l66 -72q-29 -78 -78 -104.5t-96 -26.5q-35 0 -64.5 17.5t-58.5 39.5q-23 18 -45.5 31.5t-55.5 13.5q-37 0 -62.5 -23.5t-39.5 -45.5z" />
<glyph unicode="&#xd6;" horiz-adv-x="1406" d="M102 737q0 184 31 327.5t100.5 241t184 147.5t282.5 50t284 -50t186.5 -147.5t102.5 -239.5t32 -329q0 -188 -32 -328.5t-102.5 -233.5t-186.5 -139t-284 -46q-166 0 -280.5 47t-185 140t-101.5 233.5t-31 326.5zM317 737q0 -150 19.5 -260t63.5 -183t117.5 -108.5 t182.5 -35.5q111 0 184.5 34.5t120 106t66 182.5t19.5 264q0 147 -19.5 261t-66 191t-120 115.5t-184.5 38.5q-109 0 -182.5 -38.5t-117.5 -115.5t-63.5 -189.5t-19.5 -262.5zM391 1581v227h207v-227h-207zM803 1581v227h207v-227h-207z" />
<glyph unicode="&#xd7;" horiz-adv-x="1085" d="M72 389l354 361l-354 360l121 115l350 -357l350 357l121 -115l-355 -360l355 -361l-123 -113l-348 355l-348 -355z" />
<glyph unicode="&#xd8;" horiz-adv-x="1433" d="M115 737q0 184 30.5 327.5t100 241t184.5 147.5t283 50t282 -51q35 -14 66 -35l96 164h162l-152 -258l15 -18q72 -96 103.5 -238.5t31.5 -329.5q0 -188 -32 -328.5t-102.5 -233.5t-186 -139t-283.5 -46q-166 0 -281 47l-12 4l-113 -195h-160l156 269q-31 29 -57 61 q-70 94 -100.5 234.5t-30.5 326.5zM330 737q0 -149 18 -260q18 -109 62 -180l557 956q-31 31 -70 52q-74 39 -184 38q-109 0 -182.5 -38.5t-117.5 -115.5t-63.5 -189.5t-19.5 -262.5zM510 195q10 -4 20 -11q74 -34 183 -34q111 0 184.5 34.5t119.5 106t65.5 182.5t19.5 264 q0 147 -21 260q-10 68 -32 123z" />
<glyph unicode="&#xd9;" horiz-adv-x="1384" d="M143 471v1018h211v-1016q0 -88 23.5 -148.5t67.5 -98.5t105.5 -55t139.5 -17q158 0 249 72.5t91 246.5v1016h211v-1018q0 -131 -36 -222t-106.5 -148.5t-173 -84t-235.5 -26.5t-234.5 26.5t-171 84t-105.5 148.5t-36 222zM494 1841h221l127 -260h-133z" />
<glyph unicode="&#xda;" horiz-adv-x="1384" d="M143 471v1018h211v-1016q0 -88 23.5 -148.5t67.5 -98.5t105.5 -55t139.5 -17q158 0 249 72.5t91 246.5v1016h211v-1018q0 -131 -36 -222t-106.5 -148.5t-173 -84t-235.5 -26.5t-234.5 26.5t-171 84t-105.5 148.5t-36 222zM535 1581l127 260h221l-215 -260h-133z" />
<glyph unicode="&#xdb;" horiz-adv-x="1384" d="M143 471v1018h211v-1016q0 -88 23.5 -148.5t67.5 -98.5t105.5 -55t139.5 -17q158 0 249 72.5t91 246.5v1016h211v-1018q0 -131 -36 -222t-106.5 -148.5t-173 -84t-235.5 -26.5t-234.5 26.5t-171 84t-105.5 148.5t-36 222zM424 1581l209 260h137l217 -260h-166l-121 162 l-118 -162h-158z" />
<glyph unicode="&#xdc;" horiz-adv-x="1384" d="M143 471v1018h211v-1016q0 -88 23.5 -148.5t67.5 -98.5t105.5 -55t139.5 -17q158 0 249 72.5t91 246.5v1016h211v-1018q0 -131 -36 -222t-106.5 -148.5t-173 -84t-235.5 -26.5t-234.5 26.5t-171 84t-105.5 148.5t-36 222zM391 1581v227h207v-227h-207zM803 1581v227h207 v-227h-207z" />
<glyph unicode="&#xdd;" horiz-adv-x="1314" d="M31 1489h229l397 -649l402 649h225l-520 -832v-657h-211v657zM514 1581l127 260h221l-215 -260h-133z" />
<glyph unicode="&#xde;" horiz-adv-x="1314" d="M143 0v1489h207v-215h375q250 0 368.5 -119t118.5 -375t-118.5 -390t-368.5 -134h-375v-256h-207zM350 418h348q154 0 226.5 100t72.5 262q0 168 -72.5 250t-226.5 82h-348v-694z" />
<glyph unicode="&#xdf;" horiz-adv-x="1173" d="M133 0v1077q0 225 113.5 325.5t341.5 100.5q193 0 298 -78.5t105 -226.5q0 -96 -42 -157.5t-92 -108.5t-92 -91t-42 -106q0 -53 21.5 -78.5t56.5 -46.5l110 -61q47 -27 86 -53.5t67 -59.5t42 -76t14 -104q0 -125 -100 -195.5t-262 -70.5q-88 0 -149.5 12t-125.5 41v139 q66 -23 140.5 -33t142.5 -6q27 2 56.5 7.5t55 18.5t42 35.5t16.5 59.5q0 25 -7 42.5t-23.5 32.5t-41 29.5t-61.5 34.5l-94 54q-102 57 -151.5 120.5t-49.5 161.5q0 88 42 146.5t92 104.5t92 90t42 106q0 82 -42 119.5t-146 37.5q-72 0 -120 -16t-77 -50t-40 -88t-11 -128 v-1061h-207z" />
<glyph unicode="&#xe0;" d="M88 311q0 57 10.5 107.5t38 91.5t75.5 74.5t124 56.5q37 12 81 21.5t100 15.5t127 9t161 3v29q0 72 -22.5 115t-65.5 65.5t-107.5 28.5t-148.5 6q-53 0 -133 -8t-144 -21v139q92 23 189.5 33t189.5 10q96 0 178 -19t142.5 -60t94.5 -103.5t34 -146.5v-758h-197v88 q-115 -59 -211 -80.5t-188 -21.5q-147 0 -237.5 83t-90.5 242zM303 326q0 -197 201 -197q72 0 153.5 28.5t147.5 69.5v324q-135 0 -221 -11.5t-146 -27.5q-70 -20 -102.5 -60t-32.5 -126zM371 1427h221l127 -260h-133z" />
<glyph unicode="&#xe1;" d="M88 311q0 57 10.5 107.5t38 91.5t75.5 74.5t124 56.5q37 12 81 21.5t100 15.5t127 9t161 3v29q0 72 -22.5 115t-65.5 65.5t-107.5 28.5t-148.5 6q-53 0 -133 -8t-144 -21v139q92 23 189.5 33t189.5 10q96 0 178 -19t142.5 -60t94.5 -103.5t34 -146.5v-758h-197v88 q-115 -59 -211 -80.5t-188 -21.5q-147 0 -237.5 83t-90.5 242zM303 326q0 -197 201 -197q72 0 153.5 28.5t147.5 69.5v324q-135 0 -221 -11.5t-146 -27.5q-70 -20 -102.5 -60t-32.5 -126zM453 1167l127 260h221l-215 -260h-133z" />
<glyph unicode="&#xe2;" d="M88 311q0 57 10.5 107.5t38 91.5t75.5 74.5t124 56.5q37 12 81 21.5t100 15.5t127 9t161 3v29q0 72 -22.5 115t-65.5 65.5t-107.5 28.5t-148.5 6q-53 0 -133 -8t-144 -21v139q92 23 189.5 33t189.5 10q96 0 178 -19t142.5 -60t94.5 -103.5t34 -146.5v-758h-197v88 q-115 -59 -211 -80.5t-188 -21.5q-147 0 -237.5 83t-90.5 242zM297 1167l209 260h137l217 -260h-166l-121 162l-118 -162h-158zM303 326q0 -197 201 -197q72 0 153.5 28.5t147.5 69.5v324q-135 0 -221 -11.5t-146 -27.5q-70 -20 -102.5 -60t-32.5 -126z" />
<glyph unicode="&#xe3;" d="M88 311q0 57 10.5 107.5t38 91.5t75.5 74.5t124 56.5q37 12 81 21.5t100 15.5t127 9t161 3v29q0 72 -22.5 115t-65.5 65.5t-107.5 28.5t-148.5 6q-53 0 -133 -8t-144 -21v139q92 23 189.5 33t189.5 10q96 0 178 -19t142.5 -60t94.5 -103.5t34 -146.5v-758h-197v88 q-115 -59 -211 -80.5t-188 -21.5q-147 0 -237.5 83t-90.5 242zM297 1270q23 72 73 101.5t105 29.5q43 0 77 -21.5t62 -44.5q20 -14 40 -26.5t55 -12.5q25 0 50 25t36 49l65 -72q-29 -78 -78 -104.5t-96 -26.5q-35 0 -64.5 17.5t-58.5 40.5q-23 18 -45 31.5t-55 13.5 q-37 0 -62.5 -23.5t-40.5 -46.5zM303 326q0 -197 201 -197q72 0 153.5 28.5t147.5 69.5v324q-135 0 -221 -11.5t-146 -27.5q-70 -20 -102.5 -60t-32.5 -126z" />
<glyph unicode="&#xe4;" d="M88 311q0 57 10.5 107.5t38 91.5t75.5 74.5t124 56.5q37 12 81 21.5t100 15.5t127 9t161 3v29q0 72 -22.5 115t-65.5 65.5t-107.5 28.5t-148.5 6q-53 0 -133 -8t-144 -21v139q92 23 189.5 33t189.5 10q96 0 178 -19t142.5 -60t94.5 -103.5t34 -146.5v-758h-197v88 q-115 -59 -211 -80.5t-188 -21.5q-147 0 -237.5 83t-90.5 242zM266 1167v228h207v-228h-207zM303 326q0 -197 201 -197q72 0 153.5 28.5t147.5 69.5v324q-135 0 -221 -11.5t-146 -27.5q-70 -20 -102.5 -60t-32.5 -126zM678 1167v228h207v-228h-207z" />
<glyph unicode="&#xe5;" d="M88 311q0 57 10.5 107.5t38 91.5t75.5 74.5t124 56.5q37 12 81 21.5t100 15.5t127 9t161 3v29q0 72 -22.5 115t-65.5 65.5t-107.5 28.5t-148.5 6q-53 0 -133 -8t-144 -21v139q92 23 189.5 33t189.5 10q96 0 178 -19t142.5 -60t94.5 -103.5t34 -146.5v-758h-197v88 q-115 -59 -211 -80.5t-188 -21.5q-147 0 -237.5 83t-90.5 242zM303 326q0 -197 201 -197q72 0 153.5 28.5t147.5 69.5v324q-135 0 -221 -11.5t-146 -27.5q-70 -20 -102.5 -60t-32.5 -126zM416 1298q0 70 46 110t111 40q70 0 114 -40t44 -110q0 -63 -44 -103t-114 -40 q-66 0 -111.5 40t-45.5 103zM502 1298q0 -29 21.5 -46t49.5 -17q29 0 49.5 17.5t20.5 45.5q0 35 -20.5 50.5t-49.5 15.5t-50 -15.5t-21 -50.5z" />
<glyph unicode="&#xe6;" horiz-adv-x="1843" d="M66 311q0 57 10 107.5t37.5 91.5t76 74.5t123.5 56.5q37 12 81 21.5t100.5 15.5t127 9t160.5 3v29q0 72 -22.5 115t-65.5 65.5t-107.5 28.5t-148.5 6q-53 0 -133 -8t-143 -21v139q92 23 189.5 33t189.5 10q96 0 178 -19t141 -60q27 -18 49 -43q59 61 148 92q94 31 221 30 q242 0 357.5 -120.5t115.5 -403.5q0 -27 -1 -57.5t-3 -59.5h-758q2 -78 18.5 -136t50.5 -96t89 -56.5t139 -18.5q61 0 113.5 3t102.5 11.5t100.5 19.5t105.5 28v-140q-111 -39 -221.5 -57t-220.5 -18q-131 0 -222.5 32.5t-150.5 98.5q-10 10 -19 22q-74 -51 -153 -88 q-139 -66 -328 -65q-147 0 -237 83t-90 242zM281 326q-1 -197 200 -197q84 0 178 37q82 31 160 84q-6 16 -10 35q-27 102 -27 241v25q-135 0 -221 -11.5t-145 -27.5q-70 -20 -102.5 -60t-32.5 -126zM989 590h563q-2 88 -14 152.5t-42 107.5t-83 64.5t-135 21.5 q-86 0 -140.5 -21.5t-86 -64.5t-45 -107.5t-17.5 -152.5z" />
<glyph unicode="&#xe7;" horiz-adv-x="976" d="M88 541q0 123 25.5 223t81 173t142.5 111.5t212 38.5q86 0 179 -16t171 -47v-139q-76 20 -155.5 32.5t-139.5 12.5q-92 0 -151.5 -26.5t-92 -78t-45 -123t-12.5 -161.5q0 -98 12.5 -172t46 -125t92 -77t152.5 -26q76 0 149.5 12.5t159.5 34.5v-139q-84 -33 -178 -49 q-82 -14 -164 -16l-10 -50h45q68 0 110 -37.5t42 -119.5q0 -78 -44 -127t-145 -49q-61 0 -104 5t-94 15v111q41 -6 72.5 -9.5t78.5 -5.5q39 -2 69 8.5t30 51.5q0 35 -14.5 48t-47.5 13h-160l41 154q-59 8 -108 31q-86 41 -140.5 113.5t-80 175t-25.5 229.5z" />
<glyph unicode="&#xe8;" d="M88 526q0 152 29.5 258.5t91 174t155 98t220.5 30.5q242 0 357.5 -120.5t115.5 -403.5q0 -27 -1 -58.5t-3 -60.5h-756q2 -78 17.5 -135t49 -95t89 -56.5t139.5 -18.5q61 0 113.5 3t102.5 11.5t100 19.5t106 28v-140q-111 -39 -221.5 -57t-221.5 -18q-131 0 -222 32.5 t-149.5 98t-85 168t-26.5 241.5zM297 592h559q-2 88 -14.5 152.5t-42 107.5t-81.5 63.5t-134 20.5q-86 0 -139.5 -20.5t-85 -63.5t-45 -107.5t-17.5 -152.5zM350 1427h221l127 -260h-133z" />
<glyph unicode="&#xe9;" d="M88 526q0 152 29.5 258.5t91 174t155 98t220.5 30.5q242 0 357.5 -120.5t115.5 -403.5q0 -27 -1 -58.5t-3 -60.5h-756q2 -78 17.5 -135t49 -95t89 -56.5t139.5 -18.5q61 0 113.5 3t102.5 11.5t100 19.5t106 28v-140q-111 -39 -221.5 -57t-221.5 -18q-131 0 -222 32.5 t-149.5 98t-85 168t-26.5 241.5zM297 592h559q-2 88 -14.5 152.5t-42 107.5t-81.5 63.5t-134 20.5q-86 0 -139.5 -20.5t-85 -63.5t-45 -107.5t-17.5 -152.5zM453 1167l127 260h221l-215 -260h-133z" />
<glyph unicode="&#xea;" d="M88 526q0 152 29.5 258.5t91 174t155 98t220.5 30.5q242 0 357.5 -120.5t115.5 -403.5q0 -27 -1 -58.5t-3 -60.5h-756q2 -78 17.5 -135t49 -95t89 -56.5t139.5 -18.5q61 0 113.5 3t102.5 11.5t100 19.5t106 28v-140q-111 -39 -221.5 -57t-221.5 -18q-131 0 -222 32.5 t-149.5 98t-85 168t-26.5 241.5zM297 592h559q-2 88 -14.5 152.5t-42 107.5t-81.5 63.5t-134 20.5q-86 0 -139.5 -20.5t-85 -63.5t-45 -107.5t-17.5 -152.5zM307 1167l209 260h137l217 -260h-165l-121 162l-119 -162h-158z" />
<glyph unicode="&#xeb;" d="M88 526q0 152 29.5 258.5t91 174t155 98t220.5 30.5q242 0 357.5 -120.5t115.5 -403.5q0 -27 -1 -58.5t-3 -60.5h-756q2 -78 17.5 -135t49 -95t89 -56.5t139.5 -18.5q61 0 113.5 3t102.5 11.5t100 19.5t106 28v-140q-111 -39 -221.5 -57t-221.5 -18q-131 0 -222 32.5 t-149.5 98t-85 168t-26.5 241.5zM276 1167v228h207v-228h-207zM297 592h559q-2 88 -14.5 152.5t-42 107.5t-81.5 63.5t-134 20.5q-86 0 -139.5 -20.5t-85 -63.5t-45 -107.5t-17.5 -152.5zM688 1167v228h207v-228h-207z" />
<glyph unicode="&#xec;" horiz-adv-x="473" d="M-8 1427h221l127 -260h-133zM133 0v1075h207v-1075h-207z" />
<glyph unicode="&#xed;" horiz-adv-x="473" d="M133 0v1075h207v-1075h-207zM133 1167l127 260h221l-215 -260h-133z" />
<glyph unicode="&#xee;" horiz-adv-x="473" d="M-41 1167l209 260h137l217 -260h-166l-120 162l-119 -162h-158zM133 0v1075h207v-1075h-207z" />
<glyph unicode="&#xef;" horiz-adv-x="516" d="M-31 1167v228h207v-228h-207zM154 0v1075h206v-1075h-206zM340 1167v228h207v-228h-207z" />
<glyph unicode="&#xf0;" horiz-adv-x="1122" d="M66 526q0 131 27.5 235.5t87 176.5t153.5 110.5t229 38.5q92 0 164 -18q-37 72 -84 137q-33 47 -72 92l-286 -118l-45 108l243 101q-88 82 -194 149l143 68q115 -66 211 -150l207 86l45 -110l-160 -66q88 -96 152 -205q80 -133 121 -284q33 -117 41 -238q6 -53 6 -113 q0 -125 -27 -224t-86 -170t-152.5 -108.5t-226.5 -37.5t-228 37.5t-154.5 108.5t-87 171t-27.5 223zM281 526q0 -109 16 -182.5t51 -119.5t88 -66.5t127 -20.5q68 0 119 20.5t87 66.5t53.5 120t17.5 182q0 111 -12.5 189t-44 127t-85 71.5t-135.5 22.5q-147 0 -214.5 -93 t-67.5 -317z" />
<glyph unicode="&#xf1;" horiz-adv-x="1198" d="M133 0v1034l207 62v-107q29 12 57 25q57 25 112.5 41t111 24t118.5 8q166 0 246 -93t80 -234v-760h-207v760q0 94 -48 134t-142 40q-31 0 -75 -9.5t-96.5 -24.5t-109.5 -36q-25 -8 -47 -18v-846h-207zM317 1270q23 72 73 101.5t106 29.5q43 0 76.5 -21.5t62.5 -44.5 q20 -14 39.5 -26.5t54.5 -12.5q25 0 50.5 25t35.5 49l66 -72q-29 -78 -78 -104.5t-96 -26.5q-35 0 -65 17.5t-58 40.5q-23 18 -45.5 31.5t-55.5 13.5q-37 0 -62.5 -23.5t-39.5 -46.5z" />
<glyph unicode="&#xf2;" horiz-adv-x="1165" d="M88 526q0 131 27.5 235.5t87 176.5t154 110.5t229.5 38.5q133 0 226 -38.5t152.5 -110.5t86 -176.5t26.5 -235.5q0 -125 -26.5 -224t-86 -170t-152.5 -108.5t-226 -37.5t-228.5 37.5t-155 108.5t-87 171t-27.5 223zM303 526q0 -109 16.5 -182.5t51.5 -119.5t88 -66.5 t127 -20.5q68 0 119 20.5t86.5 66.5t53 120t17.5 182q0 223 -70.5 316.5t-205.5 93.5q-147 0 -215 -93t-68 -317zM350 1427h221l127 -260h-133z" />
<glyph unicode="&#xf3;" horiz-adv-x="1165" d="M88 526q0 131 27.5 235.5t87 176.5t154 110.5t229.5 38.5q133 0 226 -38.5t152.5 -110.5t86 -176.5t26.5 -235.5q0 -125 -26.5 -224t-86 -170t-152.5 -108.5t-226 -37.5t-228.5 37.5t-155 108.5t-87 171t-27.5 223zM303 526q0 -109 16.5 -182.5t51.5 -119.5t88 -66.5 t127 -20.5q68 0 119 20.5t86.5 66.5t53 120t17.5 182q0 223 -70.5 316.5t-205.5 93.5q-147 0 -215 -93t-68 -317zM453 1167l127 260h221l-215 -260h-133z" />
<glyph unicode="&#xf4;" horiz-adv-x="1165" d="M88 526q0 131 27.5 235.5t87 176.5t154 110.5t229.5 38.5q133 0 226 -38.5t152.5 -110.5t86 -176.5t26.5 -235.5q0 -125 -26.5 -224t-86 -170t-152.5 -108.5t-226 -37.5t-228.5 37.5t-155 108.5t-87 171t-27.5 223zM303 526q0 -109 16.5 -182.5t51.5 -119.5t88 -66.5 t127 -20.5q68 0 119 20.5t86.5 66.5t53 120t17.5 182q0 223 -70.5 316.5t-205.5 93.5q-147 0 -215 -93t-68 -317zM307 1167l209 260h137l217 -260h-165l-121 162l-119 -162h-158z" />
<glyph unicode="&#xf5;" horiz-adv-x="1165" d="M88 526q0 131 27.5 235.5t87 176.5t154 110.5t229.5 38.5q133 0 226 -38.5t152.5 -110.5t86 -176.5t26.5 -235.5q0 -125 -26.5 -224t-86 -170t-152.5 -108.5t-226 -37.5t-228.5 37.5t-155 108.5t-87 171t-27.5 223zM303 526q0 -109 16.5 -182.5t51.5 -119.5t88 -66.5 t127 -20.5q68 0 119 20.5t86.5 66.5t53 120t17.5 182q0 223 -70.5 316.5t-205.5 93.5q-147 0 -215 -93t-68 -317zM309 1270q23 72 73 101.5t105 29.5q43 0 77 -21.5t63 -44.5q20 -14 39.5 -26.5t54.5 -12.5q25 0 50.5 25t35.5 49l65 -72q-29 -78 -78 -104.5t-96 -26.5 q-35 0 -64.5 17.5t-58.5 40.5q-23 18 -45 31.5t-55 13.5q-37 0 -62.5 -23.5t-39.5 -46.5z" />
<glyph unicode="&#xf6;" horiz-adv-x="1165" d="M88 526q0 131 27.5 235.5t87 176.5t154 110.5t229.5 38.5q133 0 226 -38.5t152.5 -110.5t86 -176.5t26.5 -235.5q0 -125 -26.5 -224t-86 -170t-152.5 -108.5t-226 -37.5t-228.5 37.5t-155 108.5t-87 171t-27.5 223zM276 1167v228h207v-228h-207zM303 526 q0 -109 16.5 -182.5t51.5 -119.5t88 -66.5t127 -20.5q68 0 119 20.5t86.5 66.5t53 120t17.5 182q0 223 -70.5 316.5t-205.5 93.5q-147 0 -215 -93t-68 -317zM688 1167v228h207v-228h-207z" />
<glyph unicode="&#xf7;" horiz-adv-x="1085" d="M78 678v156h928v-156h-928zM416 260v252h250v-252h-250zM416 1014v252h250v-252h-250z" />
<glyph unicode="&#xf8;" horiz-adv-x="1187" d="M-10 -72l200 242q-37 59 -57 133q-27 100 -27 223q0 131 28 235.5t87.5 176.5t153.5 110.5t229 38.5q133 0 225 -38q35 -14 64 -35l133 160h168l-205 -246q55 -68 80 -166q27 -104 27 -236q0 -125 -27 -224t-86 -170t-152.5 -108.5t-226.5 -37.5t-229 37q-53 23 -94 53 l-123 -148h-168zM322 526q0 -106 14 -180l442 531q-65 59 -174 59q-147 0 -214.5 -93t-67.5 -317zM395 215q33 -39 82 -57q53 -20 127 -21q68 0 119 20.5t87 66.5t53.5 120t17.5 182q0 145 -31 236z" />
<glyph unicode="&#xf9;" horiz-adv-x="1198" d="M133 309v725l207 62v-801q0 -84 47 -120t137 -36q84 0 166 24.5t168 53.5v858h207v-1075h-207v82q-109 -45 -198 -70.5t-177 -25.5q-72 0 -136 17t-111.5 56t-75 100.5t-27.5 149.5zM360 1427h222l127 -260h-134z" />
<glyph unicode="&#xfa;" horiz-adv-x="1198" d="M133 309v725l207 62v-801q0 -84 47 -120t137 -36q84 0 166 24.5t168 53.5v858h207v-1075h-207v82q-109 -45 -198 -70.5t-177 -25.5q-72 0 -136 17t-111.5 56t-75 100.5t-27.5 149.5zM463 1167l127 260h221l-215 -260h-133z" />
<glyph unicode="&#xfb;" horiz-adv-x="1198" d="M133 309v725l207 62v-801q0 -84 47 -120t137 -36q84 0 166 24.5t168 53.5v858h207v-1075h-207v82q-109 -45 -198 -70.5t-177 -25.5q-72 0 -136 17t-111.5 56t-75 100.5t-27.5 149.5zM334 1167l209 260h137l217 -260h-166l-121 162l-118 -162h-158z" />
<glyph unicode="&#xfc;" horiz-adv-x="1198" d="M133 309v725l207 62v-801q0 -84 47 -120t137 -36q84 0 166 24.5t168 53.5v858h207v-1075h-207v82q-109 -45 -198 -70.5t-177 -25.5q-72 0 -136 17t-111.5 56t-75 100.5t-27.5 149.5zM303 1167v228h207v-228h-207zM715 1167v228h207v-228h-207z" />
<glyph unicode="&#xfd;" horiz-adv-x="1198" d="M133 350v684l207 62v-760q0 -84 47 -118t137 -34q84 0 170 23q82 23 164 49v819h207v-1143q0 -84 -34 -146t-94 -103t-142 -60.5t-179 -19.5q-92 0 -186 10t-186 33v139q63 -12 140 -20.5t130 -8.5q84 0 148.5 6.5t107.5 29t65.5 65.5t22.5 114v150q-104 -43 -194 -68 q-92 -27 -181 -26q-72 0 -136 17t-111.5 56t-75 100.5t-27.5 149.5zM473 1167l127 260h221l-215 -260h-133z" />
<glyph unicode="&#xfe;" horiz-adv-x="1146" d="M133 -401v1880l207 61v-510q88 29 158.5 43t142.5 14q125 0 211 -39.5t138 -113.5t74.5 -176.5t22.5 -227.5t-22.5 -225t-74.5 -172t-137 -110.5t-212 -38.5q-78 0 -145.5 19.5t-155.5 59.5v-403zM340 201q80 -35 149.5 -49.5t128.5 -14.5q80 0 129.5 30t77 82 t37.5 123.5t10 157.5q0 82 -10 155t-37.5 128t-78 87t-128.5 32q-59 0 -126.5 -12.5t-151.5 -40.5v-678z" />
<glyph unicode="&#xff;" horiz-adv-x="1198" d="M133 350v684l207 62v-760q0 -84 47 -118t137 -34q84 0 170 23q82 23 164 49v819h207v-1143q0 -84 -34 -146t-94 -103t-142 -60.5t-179 -19.5q-92 0 -186 10t-186 33v139q63 -12 140 -20.5t130 -8.5q84 0 148.5 6.5t107.5 29t65.5 65.5t22.5 114v150q-104 -43 -194 -68 q-92 -27 -181 -26q-72 0 -136 17t-111.5 56t-75 100.5t-27.5 149.5zM303 1167v228h207v-228h-207zM715 1167v228h207v-228h-207z" />
<glyph unicode="&#x152;" horiz-adv-x="1761" d="M92 737q0 184 31 325.5t100.5 236t184.5 141.5q115 49 282 49h1006v-162h-633v-491h598l-62 -164h-536v-510h633v-162h-1006q-166 0 -280.5 45t-185 137t-101.5 230.5t-31 324.5zM307 737q0 -150 19.5 -259t63.5 -179.5t118 -105.5q74 -33 182 -33h164v1169h-164 q-109 0 -182.5 -37t-117.5 -110.5t-63.5 -184t-19.5 -260.5z" />
<glyph unicode="&#x153;" horiz-adv-x="1843" d="M53 526q0 131 28 235.5t87 176.5t153.5 110.5t229.5 38.5q141 0 232 -50t145 -144q53 94 148 145.5t247 48.5q242 0 357.5 -120.5t115.5 -403.5q0 -27 -1 -57.5t-3 -59.5h-756q2 -78 17.5 -136t49.5 -96t89 -56.5t139 -18.5q61 0 113.5 3t102.5 11.5t100.5 19.5t105.5 28 v-140q-111 -39 -221.5 -57t-220.5 -18q-131 0 -225.5 44t-159.5 122q-135 -166 -375 -166q-133 0 -228.5 37.5t-154.5 108.5t-87 171t-28 223zM268 526q0 -109 16.5 -182.5t51.5 -119.5t88 -66.5t127 -20.5q66 0 117 19.5t85.5 62.5t53 112.5t20.5 172.5v43 q-4 211 -73.5 300t-202.5 89q-147 0 -215 -93t-68 -317zM1036 590h559q-2 88 -14 152.5t-42 107.5t-82 64.5t-134 21.5q-86 0 -139.5 -21.5t-85 -64.5t-45 -107.5t-17.5 -152.5z" />
<glyph unicode="&#x178;" horiz-adv-x="1314" d="M31 1489h229l397 -649l402 649h225l-520 -832v-657h-211v657zM358 1581v227h207v-227h-207zM770 1581v227h207v-227h-207z" />
<glyph unicode="&#x2dc;" horiz-adv-x="1024" d="M229 1683q23 72 73 102t106 30q43 0 76.5 -21.5t62.5 -44.5q20 -14 39.5 -26.5t54.5 -12.5q25 0 50.5 24.5t35.5 49.5l66 -72q-29 -78 -78 -104.5t-97 -26.5q-35 0 -64.5 17.5t-57.5 39.5q-23 18 -45.5 31.5t-55.5 13.5q-37 0 -62.5 -23.5t-39.5 -45.5z" />
<glyph unicode="&#x2000;" horiz-adv-x="924" />
<glyph unicode="&#x2001;" horiz-adv-x="1849" />
<glyph unicode="&#x2002;" horiz-adv-x="924" />
<glyph unicode="&#x2003;" horiz-adv-x="1849" />
<glyph unicode="&#x2004;" horiz-adv-x="616" />
<glyph unicode="&#x2005;" horiz-adv-x="462" />
<glyph unicode="&#x2006;" horiz-adv-x="308" />
<glyph unicode="&#x2007;" horiz-adv-x="308" />
<glyph unicode="&#x2008;" horiz-adv-x="231" />
<glyph unicode="&#x2009;" horiz-adv-x="369" />
<glyph unicode="&#x200a;" horiz-adv-x="102" />
<glyph unicode="&#x2010;" horiz-adv-x="1085" d="M143 678v160h799v-160h-799z" />
<glyph unicode="&#x2011;" horiz-adv-x="1085" d="M143 678v160h799v-160h-799z" />
<glyph unicode="&#x2012;" horiz-adv-x="1085" d="M143 678v160h799v-160h-799z" />
<glyph unicode="&#x2013;" horiz-adv-x="1310" d="M143 678v160h1024v-160h-1024z" />
<glyph unicode="&#x2014;" horiz-adv-x="1769" d="M6 676v158h1757v-158h-1757z" />
<glyph unicode="&#x2018;" horiz-adv-x="450" d="M39 1135l174 456h170l-115 -456h-229z" />
<glyph unicode="&#x2019;" horiz-adv-x="450" d="M59 1135l115 456h229l-174 -456h-170z" />
<glyph unicode="&#x201c;" horiz-adv-x="778" d="M39 1034l174 457h170l-115 -457h-229zM391 1034l174 457h170l-114 -457h-230z" />
<glyph unicode="&#x201d;" horiz-adv-x="778" d="M39 1034l115 457h229l-174 -457h-170zM391 1034l115 457h229l-174 -457h-170z" />
<glyph unicode="&#x2022;" horiz-adv-x="1884" d="M717 625q0 47 18.5 88t49 71.5t71.5 49t88 18.5t88 -18.5t72 -49t49 -71.5t18 -88t-18 -88t-49 -72t-72 -48.5t-88 -17.5t-88 17.5t-71.5 48.5t-49 72t-18.5 88z" />
<glyph unicode="&#x2026;" horiz-adv-x="1884" d="M201 549v237h227v-237h-227zM838 549v237h227v-237h-227zM1444 549v237h227v-237h-227z" />
<glyph unicode="&#x202f;" horiz-adv-x="369" />
<glyph unicode="&#x2039;" horiz-adv-x="1884" d="M997 618l701 889l102 -77l-643 -812l643 -811l-100 -77z" />
<glyph unicode="&#x203a;" horiz-adv-x="1884" d="M90 -193l643 811l-643 812l103 77l700 -889l-703 -888z" />
<glyph unicode="&#x205f;" horiz-adv-x="462" />
<glyph unicode="&#x20ac;" horiz-adv-x="1208" d="M0 580v96h143v67v72h-143v96h150q10 78 24 148q33 141 102.5 239.5t180 151.5t268.5 53q117 0 222.5 -17.5t211.5 -51.5v-140q-55 12 -101 21.5t-92 15.5t-95.5 9t-108.5 3q-109 0 -185.5 -39.5t-125 -116.5t-70.5 -190q-8 -41 -14 -86h555v-96h-564v-72v-67h564v-96 h-555q6 -43 14 -82q23 -111 71 -188t124.5 -118.5t187.5 -41.5q68 0 120 4t96 11t87 15t92 19v-140q-111 -35 -220.5 -52t-213.5 -17q-158 0 -268.5 56t-180 155.5t-102.5 236.5q-14 68 -22 142h-152z" />
<glyph unicode="&#x2122;" horiz-adv-x="1843" d="M51 1483v133h686l-49 -133h-219v-625h-156v625h-262zM809 858v758h235l226 -582l225 582h236v-758h-152v584l-217 -549h-184l-217 549v-584h-152z" />
<glyph unicode="&#xe000;" horiz-adv-x="1075" d="M0 0v1075h1075v-1075h-1075z" />
</font>
</defs>
</svg>
