<?xml version="1.0" standalone="no"?>
<!DOCTYPE svg PUBLIC "-//W3C//DTD SVG 1.1//EN" "http://www.w3.org/Graphics/SVG/1.1/DTD/svg11.dtd" >
<svg xmlns="http://www.w3.org/2000/svg">
<metadata></metadata>
<defs>
<font id="kia_boldregular" horiz-adv-x="1144" >
<font-face units-per-em="2048" ascent="1638" descent="-410" />
<missing-glyph horiz-adv-x="681" />
<glyph horiz-adv-x="0" />
<glyph horiz-adv-x="682" />
<glyph horiz-adv-x="681" />
<glyph unicode=" "  horiz-adv-x="681" />
<glyph unicode="&#x09;" horiz-adv-x="681" />
<glyph unicode="&#xa0;" horiz-adv-x="681" />
<glyph horiz-adv-x="681" />
<glyph horiz-adv-x="681" />
<glyph horiz-adv-x="681" />
<glyph horiz-adv-x="681" />
<glyph horiz-adv-x="681" />
<glyph horiz-adv-x="681" />
<glyph horiz-adv-x="681" />
<glyph horiz-adv-x="681" />
<glyph horiz-adv-x="681" />
<glyph horiz-adv-x="681" />
<glyph horiz-adv-x="681" />
<glyph horiz-adv-x="681" />
<glyph horiz-adv-x="681" />
<glyph horiz-adv-x="681" />
<glyph horiz-adv-x="681" />
<glyph horiz-adv-x="681" />
<glyph horiz-adv-x="681" />
<glyph horiz-adv-x="681" />
<glyph unicode="&#xd;" horiz-adv-x="681" />
<glyph horiz-adv-x="681" />
<glyph horiz-adv-x="681" />
<glyph unicode="&#xa;" horiz-adv-x="681" />
<glyph unicode="&#x9;" horiz-adv-x="681" />
<glyph horiz-adv-x="681" />
<glyph horiz-adv-x="681" />
<glyph horiz-adv-x="681" />
<glyph horiz-adv-x="681" />
<glyph horiz-adv-x="681" />
<glyph horiz-adv-x="681" />
<glyph horiz-adv-x="681" />
<glyph horiz-adv-x="681" />
<glyph unicode="!" horiz-adv-x="591" d="M156 0v281h278v-281h-278zM160 1489h276l-22 -1069h-236z" />
<glyph unicode="&#x22;" horiz-adv-x="761" d="M96 1008v483h248v-483h-248zM418 1008v483h248v-483h-248z" />
<glyph unicode="#" horiz-adv-x="1249" d="M45 418v231h234l34 205h-207v229h244l64 390h245l-63 -390h170l65 390h244l-63 -390h196v-229h-233l-35 -205h207v-231h-244l-65 -408h-246l67 408h-172l-65 -408h-246l66 408h-197zM526 649h170l37 205h-174z" />
<glyph unicode="$" horiz-adv-x="1187" d="M80 1053q0 201 125 299q94 74 270 92v153h250v-153q49 -6 98 -14q115 -20 226 -56v-213q-147 35 -254 47q-37 4 -70 6v-376q72 -20 131 -43q86 -33 144.5 -78t89 -107.5t30.5 -150.5q0 -219 -143 -330q-100 -78 -252 -98v-183h-250v181q-57 6 -117 16q-63 10 -127.5 24.5 t-124.5 32.5v213q141 -25 265 -41q55 -8 104 -12v393q-66 18 -121 39q-88 33 -148.5 81t-93 114.5t-32.5 163.5zM338 1057q0 -45 18.5 -74t53.5 -49q27 -14 65 -27v301q-43 -10 -72 -26q-66 -39 -65 -125zM725 274q37 10 66 29q72 47 71 152q0 39 -20.5 66.5t-61.5 45.5 q-25 12 -55 23v-316z" />
<glyph unicode="%" horiz-adv-x="1808" d="M61 1077q0 94 26 171t72 132.5t111.5 85t147.5 29.5t147.5 -29.5t110.5 -85t69.5 -132.5t24.5 -171q0 -188 -93 -296.5t-259 -108.5q-164 0 -260.5 105.5t-96.5 299.5zM254 -33l991 1546h285l-989 -1546h-287zM324 1083q0 -98 20.5 -144t73.5 -46t73.5 46t20.5 144 t-20.5 142.5t-73.5 44.5t-73.5 -44t-20.5 -143zM1010 399q0 94 24.5 171t70.5 132.5t112.5 85t148.5 29.5t147.5 -29.5t111.5 -85t70.5 -132t24.5 -171.5q0 -188 -95 -297.5t-259 -109.5q-166 0 -261 106.5t-95 300.5zM1272 406q0 -98 19.5 -144.5t74.5 -46.5q53 0 72.5 46 t19.5 145q0 98 -20.5 142t-71.5 44q-53 0 -73.5 -44t-20.5 -142z" />
<glyph unicode="&#x26;" horiz-adv-x="1357" d="M59 426q0 78 21.5 141.5t59.5 113.5t90.5 91t111.5 76q-53 70 -81 138.5t-28 146.5q0 98 31 167.5t85 113.5t128 65.5t160 21.5q174 0 275.5 -89t101.5 -253q0 -145 -77 -241.5t-189 -159.5q57 -70 109 -130.5t112 -133.5q16 55 28.5 126.5t16.5 141.5h217 q0 -137 -27.5 -253t-79.5 -206q29 -33 61 -70.5t63.5 -75.5l63 -76t58.5 -71h-323l-86 101q-78 -61 -175.5 -93t-195.5 -32q-248 0 -389.5 110.5t-141.5 329.5zM334 446q0 -106 62.5 -167.5t191.5 -61.5q66 0 125 14.5t106 49.5q-84 98 -160.5 190t-160.5 191 q-72 -41 -118 -93.5t-46 -122.5zM502 1145q0 -53 21.5 -98.5t56.5 -85.5l10 -11q31 16 59.5 38t52 47.5t38 56t14.5 67.5q0 59 -29 93t-88 34q-68 0 -101.5 -36.5t-33.5 -104.5z" />
<glyph unicode="'" horiz-adv-x="428" d="M80 1008v483h266v-483h-266z" />
<glyph unicode="(" horiz-adv-x="716" d="M55 688v74q0 139 31 264t83 234.5t120.5 202.5t146.5 169h260q-78 -88 -146.5 -189.5t-120.5 -212t-82 -225t-30 -229.5v-102q0 -115 30 -229.5t82 -225t120.5 -212t146.5 -189.5h-260q-78 76 -146.5 169t-120.5 202.5t-83 234.5t-31 264z" />
<glyph unicode=")" horiz-adv-x="716" d="M20 -182q78 88 147 189.5t121 212t81.5 225t29.5 229.5v102q0 115 -29.5 229.5t-81.5 225t-121 212t-147 189.5h261q76 -76 145.5 -169t121.5 -202.5t83 -234.5t31 -264v-74q0 -139 -31 -264t-83 -234.5t-122 -202.5t-145 -169h-261z" />
<glyph unicode="*" horiz-adv-x="796" d="M47 852l152 70l-152 73l111 185l139 -90l-6 174h215l-6 -174l141 92l107 -189l-152 -71l152 -70l-107 -193l-141 95l6 -170h-215l4 168l-141 -90z" />
<glyph unicode="+" horiz-adv-x="1085" d="M94 641v227h328v342h242v-342h325v-227h-325v-344h-242v344h-328z" />
<glyph unicode="," horiz-adv-x="532" d="M37 -172l113 461h307l-181 -461h-239z" />
<glyph unicode="-" horiz-adv-x="1085" d="M133 641v229h817v-229h-817z" />
<glyph unicode="." horiz-adv-x="532" d="M127 -35v281h279v-281h-279z" />
<glyph unicode="/" horiz-adv-x="819" d="M25 -162l485 1749h274l-491 -1749h-268z" />
<glyph unicode="0" horiz-adv-x="1300" d="M117 733q0 395 140 582.5t392 187.5t393.5 -187.5t141.5 -582.5q0 -197 -36 -340t-105.5 -235t-169 -136.5t-224.5 -44.5q-127 0 -225 44.5t-167 136.5t-104.5 234.5t-35.5 340.5zM399 733q0 -266 53.5 -396t196.5 -130t197.5 130t54.5 396q0 129 -12 230.5t-42 170 t-78 104.5t-120 36t-120 -36t-76.5 -104.5t-41 -170t-12.5 -230.5z" />
<glyph unicode="1" horiz-adv-x="860" d="M117 1174v215l499 120v-1509h-278v1208z" />
<glyph unicode="2" horiz-adv-x="1146" d="M111 0v209l335 330q139 137 211 267t72 247q0 111 -55.5 164t-196.5 53q-74 0 -160 -16.5t-194 -51.5v223q82 33 187.5 55.5t195.5 22.5q256 0 381 -106.5t125 -329.5q0 -176 -93.5 -337t-275.5 -343l-151 -156h581l-92 -231h-870z" />
<glyph unicode="3" horiz-adv-x="1112" d="M59 55v224q78 -18 137.5 -29.5t109.5 -18t95 -9.5t95 -3q135 0 191 51.5t61 155.5q0 70 -26 115t-73 69.5t-111.5 33.5t-142.5 9h-108v238h108q51 0 104.5 9t96.5 32.5t70.5 66.5t27.5 111q0 76 -44 116t-154 42q-98 2 -190.5 -14.5t-196.5 -51.5v221q41 18 92 32.5 t103 25t102.5 16.5t89.5 6q244 0 362.5 -93t118.5 -296q0 -113 -51.5 -189.5t-137.5 -123.5q111 -39 176.5 -126t65.5 -249q0 -117 -36 -201t-101.5 -139t-159.5 -80.5t-213 -25.5q-117 0 -233.5 20t-227.5 55z" />
<glyph unicode="4" horiz-adv-x="1228" d="M37 291v211l620 987h301v-965h267l-88 -233h-179v-291h-262v291h-659zM342 524h354v574z" />
<glyph unicode="5" horiz-adv-x="1073" d="M45 55v226q129 -33 232.5 -46.5t207.5 -13.5q129 0 180.5 64.5t51.5 177.5q0 76 -16.5 125t-53.5 77.5t-96 40t-145 11.5q-72 0 -153 -6t-157 -17l51 795h848l-92 -236h-508l-22 -307q29 4 54.5 5t59.5 1q256 0 387.5 -117.5t131.5 -371.5q0 -236 -126 -358.5 t-370 -122.5q-117 0 -233.5 19t-231.5 54z" />
<glyph unicode="6" horiz-adv-x="1245" d="M98 690q0 258 47.5 417t125 247t178 118.5t206.5 30.5q96 0 202 -17.5t214 -51.5v-217q-104 27 -194 40t-168 13q-61 0 -115.5 -13.5t-96.5 -50.5t-71 -100.5t-37 -161.5q84 27 165 39t148 12q227 0 347 -126t120 -353q0 -121 -30.5 -220t-94 -170t-161 -110t-228.5 -39 q-152 0 -257 48.5t-171.5 140.5t-97.5 224t-31 300zM383 717q0 -115 6 -209t34 -160.5t82 -103.5t148 -37q133 0 183.5 72.5t50.5 216.5q0 150 -55.5 207t-180.5 57q-66 0 -138.5 -12.5t-129.5 -30.5z" />
<glyph unicode="7" horiz-adv-x="1085" d="M49 1251v238h975v-203l-604 -1286h-297l590 1251h-664z" />
<glyph unicode="8" horiz-adv-x="1280" d="M80 406q0 68 20.5 123t54 100t77.5 79.5t94 61.5q-88 57 -147.5 140t-59.5 198q0 180 132 289.5t380 109.5q123 0 218 -28.5t160.5 -80.5t100.5 -126t35 -164q0 -109 -59.5 -193t-151.5 -143q53 -25 101 -59.5t84 -79.5t57.5 -101.5t21.5 -125.5q0 -92 -36 -172 t-106.5 -137.5t-177 -90.5t-245.5 -33t-242.5 32t-173.5 89.5t-103.5 137t-33.5 174.5zM352 406q0 -92 73 -147.5t208 -55.5q141 0 211.5 55t70.5 148q0 100 -79.5 166.5t-202.5 89.5q-125 -23 -203 -90.5t-78 -165.5zM403 1108q0 -90 54.5 -141.5t175.5 -92.5 q117 41 175 91.5t58 142.5q0 80 -59 126t-176 46q-113 0 -170.5 -46t-57.5 -126z" />
<glyph unicode="9" horiz-adv-x="1253" d="M90 965q0 121 31 220t94.5 169.5t160.5 109.5t230 39q150 0 255.5 -48t172 -140t97 -224.5t30.5 -297.5q0 -258 -47 -418t-125 -248t-178 -119t-205 -31q-98 0 -211.5 19.5t-220.5 54.5v219q104 -29 202.5 -45t176.5 -16q61 0 115.5 14.5t95.5 51t68.5 100t37.5 162.5 q-82 -27 -163.5 -38.5t-149.5 -11.5q-227 0 -347 125t-120 353zM373 985q0 -150 55 -208t180 -58q66 0 138.5 13t130.5 30q0 115 -6.5 209t-34 160.5t-82 103.5t-148.5 37q-133 0 -183 -72t-50 -215z" />
<glyph unicode=":" horiz-adv-x="546" d="M133 276v279h270v-279h-270zM133 909v281h270v-281h-270z" />
<glyph unicode=";" horiz-adv-x="503" d="M2 45l127 502h305l-190 -502h-242zM127 909v281h272v-281h-272z" />
<glyph unicode="&#x3c;" horiz-adv-x="1085" d="M137 666v180l803 520v-266l-522 -346l522 -344v-269z" />
<glyph unicode="=" horiz-adv-x="1085" d="M98 446v230h889v-230h-889zM98 838v227h889v-227h-889z" />
<glyph unicode="&#x3e;" horiz-adv-x="1085" d="M145 141v269l523 344l-523 346v266l803 -520v-180z" />
<glyph unicode="?" horiz-adv-x="962" d="M51 1247v217q233 80 402 80q90 0 168.5 -22.5t137 -70.5t92.5 -121t34 -173q0 -141 -52.5 -260t-166.5 -217q-59 -47 -95 -91t-36 -97v-121h-250v141q0 61 14 106.5t42 84t69 75.5t94 82q51 39 81.5 98.5t30.5 143.5q0 104 -47 155.5t-157 51.5q-72 0 -165 -16.5 t-196 -45.5zM268 0v281h279v-281h-279z" />
<glyph unicode="@" horiz-adv-x="1867" d="M100 389q0 180 58.5 353t173 306.5t287 215.5t397.5 82q172 0 311 -55.5t237.5 -155t150.5 -234.5t52 -295q0 -150 -33.5 -268.5t-97 -200.5t-154.5 -125t-206 -43q-78 0 -133.5 25.5t-85.5 62.5q-49 -35 -112.5 -61.5t-131.5 -26.5q-156 0 -241 103.5t-85 275.5 q0 137 33 250t93.5 192.5t147.5 122.5t197 43q49 0 99.5 -13t91.5 -36l6 31h254q-59 82 -158.5 128t-236.5 46q-162 0 -284 -57.5t-204 -155.5t-123 -229t-41 -279q0 -262 143.5 -409.5t432.5 -147.5q135 0 271.5 31t232.5 69v-221q-53 -23 -117.5 -41t-131.5 -33.5 t-133.5 -23.5t-123.5 -8q-199 0 -354.5 53t-262 153.5t-163 246t-56.5 329.5zM764 350q0 -66 23.5 -108.5t68.5 -42.5q43 0 90 17t78 46l80 430q-66 31 -141 31q-53 0 -91 -28.5t-62 -79t-35 -118t-11 -147.5zM1284 242q-4 -23 2 -34t19 -11q98 0 151 90t53 307 q0 100 -23.5 186t-72.5 152z" />
<glyph unicode="A" horiz-adv-x="1333" d="M10 0l484 1489h348l481 -1489h-287l-112 358h-514l-113 -358h-287zM485 594h363l-180 573z" />
<glyph unicode="B" horiz-adv-x="1316" d="M135 0v1489h555q129 0 220 -25.5t148.5 -78t83 -132t25.5 -190.5q0 -100 -29.5 -170t-88.5 -119q76 -41 117.5 -118.5t41.5 -221.5q0 -119 -33.5 -200.5t-98 -134t-157 -76t-206.5 -23.5h-578zM408 236h317q111 0 157 53t46 145q0 106 -54.5 152.5t-148.5 46.5h-317v-397 zM408 868h276q111 0 157 51.5t46 141.5q0 104 -52.5 148t-150.5 44h-276v-385z" />
<glyph unicode="C" horiz-adv-x="1189" d="M78 748q0 174 31.5 314t102.5 238.5t183.5 150.5t272.5 52q119 0 224 -17.5t226 -55.5v-216q-66 14 -119 24.5t-102 17t-96 8.5t-101 2q-180 0 -257.5 -135.5t-77.5 -382.5q0 -119 18 -215.5t59 -164t105.5 -104.5t154.5 -37q49 0 95.5 3t95.5 10.5t103.5 17.5t121.5 27 v-219q-117 -35 -230.5 -55.5t-219.5 -20.5q-160 0 -272.5 56t-183.5 157.5t-102.5 240t-31.5 304.5z" />
<glyph unicode="D" horiz-adv-x="1378" d="M137 0v1489h539q178 0 292.5 -50t182.5 -144.5t93.5 -226.5t25.5 -298q0 -170 -24.5 -311.5t-90 -243.5t-181.5 -158.5t-298 -56.5h-539zM420 238h237q104 0 170 42t101 114.5t47 168.5t12 207q0 106 -12 195.5t-47 153t-100.5 98t-170.5 34.5h-237v-1013z" />
<glyph unicode="E" horiz-adv-x="1230" d="M129 0v1489h1006v-238h-723v-381h698l-92 -237h-606v-395h723v-238h-1006z" />
<glyph unicode="F" horiz-adv-x="1171" d="M129 0v1489h967v-238h-684v-381h639l-93 -237h-546v-633h-283z" />
<glyph unicode="G" horiz-adv-x="1396" d="M82 745q0 174 31.5 314.5t102.5 239t184.5 151.5t275.5 53q115 0 235.5 -16.5t249.5 -56.5v-226q-125 35 -235.5 48.5t-220.5 13.5q-172 0 -253 -133.5t-81 -387.5q0 -250 78.5 -384t252.5 -134q82 0 193 25q39 8 80 18v342h-363v240h643v-852h-280v47l-78 -24 q-115 -33 -221 -33q-162 0 -275.5 55t-184.5 155.5t-102.5 240t-31.5 304.5z" />
<glyph unicode="H" horiz-adv-x="1404" d="M133 0v1489h283v-617h571v617h283v-1489h-283v635h-571v-635h-283z" />
<glyph unicode="I" horiz-adv-x="495" d="M106 0v1489h283v-1489h-283z" />
<glyph unicode="J" horiz-adv-x="808" d="M16 33v213q72 -12 141.5 -19.5t123.5 -7.5q66 0 91 28.5t25 106.5v1135h283v-1163q0 -74 -16.5 -134.5t-53.5 -103.5t-97 -68.5t-146 -31.5q-12 -1 -25 -1q-21 0 -47 2q-43 3 -92 9t-98.5 14t-88.5 21z" />
<glyph unicode="K" horiz-adv-x="1320" d="M113 0v1489h282v-559l539 559h350l-715 -737l721 -752h-354l-541 573v-573h-282z" />
<glyph unicode="L" horiz-adv-x="1105" d="M121 0v1489h282v-1251h676l-92 -238h-866z" />
<glyph unicode="M" horiz-adv-x="1742" d="M133 0v1489h434l305 -1208l304 1208h434v-1489h-262v1182l-293 -1127h-367l-293 1127v-1182h-262z" />
<glyph unicode="N" horiz-adv-x="1437" d="M135 0v1489h387l508 -1186v1186h273v-1489h-388l-507 1186v-1186h-273z" />
<glyph unicode="O" horiz-adv-x="1406" d="M100 739q0 184 31 326.5t101.5 240t185 147.5t284.5 50q168 0 284 -50t186.5 -147.5t101.5 -239.5t31 -327q0 -184 -31 -323.5t-101.5 -234.5t-186.5 -143t-284 -48q-170 0 -284.5 48t-185 143t-101.5 234.5t-31 323.5zM383 739q0 -260 71.5 -386t247.5 -126t248 126 t72 386q0 256 -71.5 391.5t-248.5 135.5q-176 0 -247.5 -134.5t-71.5 -392.5z" />
<glyph unicode="P" horiz-adv-x="1314" d="M141 0v1489h572q256 0 377.5 -123t121.5 -387q0 -262 -121.5 -389t-377.5 -127h-289v-463h-283zM424 700h266q123 0 181.5 74t58.5 205q0 137 -58.5 204.5t-181.5 67.5h-266v-551z" />
<glyph unicode="Q" horiz-adv-x="1406" d="M102 739q0 184 31 326.5t100.5 240t184 147.5t284.5 50q168 0 284 -50t185.5 -147.5t100.5 -239.5t31 -327q0 -184 -31 -323.5t-101 -235.5q-66 -90 -172 -137l254 -315h-335l-209 262h-7q-170 0 -284.5 48t-184 143t-100.5 234.5t-31 323.5zM383 739q0 -260 71.5 -386 t247.5 -126t248 126t72 386q0 256 -71.5 391.5t-248.5 135.5q-176 0 -247.5 -134.5t-71.5 -392.5z" />
<glyph unicode="R" horiz-adv-x="1337" d="M139 0v1489h570q127 0 222 -25.5t157.5 -83t93 -149.5t30.5 -223q0 -260 -125 -375q-49 -45 -118 -72l313 -561h-317l-287 520h-258v-520h-281zM420 758h270q123 0 181.5 59.5t58.5 190.5q0 135 -58.5 189t-181.5 54h-270v-493z" />
<glyph unicode="S" horiz-adv-x="1206" d="M78 1096q0 193 125 300t401 107q98 0 213 -16.5t232 -52.5v-222q-119 31 -225.5 42.5t-198.5 11.5q-53 0 -100.5 -5.5t-83 -23.5t-57.5 -51t-22 -88q0 -51 15.5 -84t51.5 -56.5t92.5 -41t137.5 -37.5q113 -29 200 -62t145.5 -82t89 -117.5t30.5 -166.5q0 -233 -143 -349 q-138 -112 -380 -112h-17q-111 2 -235 21.5t-243 54.5v219q137 -27 251 -42.5t225 -15.5q137 0 198.5 51.5t61.5 167.5q0 43 -17.5 73t-53.5 51.5t-91 37t-129 33.5q-113 27 -201 63.5t-148.5 90t-92 126t-31.5 175.5z" />
<glyph unicode="T" horiz-adv-x="1325" d="M49 1251v238h1245l-92 -238h-414v-1251h-282v1251h-457z" />
<glyph unicode="U" horiz-adv-x="1384" d="M133 485v1004h283v-1002q0 -141 74.5 -198.5t197.5 -57.5q129 0 203 57.5t74 198.5v1002h286v-1004q0 -135 -36.5 -229t-109.5 -153.5t-177.5 -86t-239.5 -26.5t-238.5 26.5t-174 86t-106.5 153.5t-36 229z" />
<glyph unicode="V" horiz-adv-x="1349" d="M18 1489h287l371 -1210l368 1210h287l-471 -1489h-368z" />
<glyph unicode="W" horiz-adv-x="1908" d="M20 1489h281l238 -1219l235 1219h361l233 -1219l240 1219h280l-325 -1489h-381l-228 1133l-229 -1133h-381z" />
<glyph unicode="X" horiz-adv-x="1310" d="M14 0l480 743l-480 746h326l315 -494l320 494h321l-479 -744l479 -745h-323l-318 492l-317 -492h-324z" />
<glyph unicode="Y" horiz-adv-x="1314" d="M-6 1489h311l352 -576l353 576h311l-520 -840v-649h-285v651z" />
<glyph unicode="Z" horiz-adv-x="1220" d="M102 0v215l672 1036h-672v238h1010v-211l-684 -1040h721l-90 -238h-957z" />
<glyph unicode="[" horiz-adv-x="694" d="M92 -168v1782h533v-234h-271v-1314h271v-234h-533z" />
<glyph unicode="\" horiz-adv-x="1908" d="M14 674v217h146l-133 598h262l123 -598h243l115 598h369l112 -598h244l125 598h262l-135 -598h149v-217h-196l-152 -674h-358l-133 674h-205l-133 -674h-361l-151 674h-193zM457 674l82 -395l75 395h-157zM895 891h119l-60 299zM1292 674l76 -395l82 395h-158z" />
<glyph unicode="]" horiz-adv-x="694" d="M72 66h270v1314h-270v234h532v-1782h-532v234z" />
<glyph unicode="^" horiz-adv-x="1161" d="M61 834l388 727h249l400 -727h-281l-237 436l-238 -436h-281z" />
<glyph unicode="_" horiz-adv-x="1120" d="M80 -102h958v-222h-958v222z" />
<glyph unicode="`" horiz-adv-x="528" d="M78 1591h299l76 -481h-234z" />
<glyph unicode="a" d="M86 328q0 59 11.5 111.5t40 95.5t77.5 76.5t125 56.5q88 27 192.5 36t212.5 11v30q0 37 -21.5 59.5t-58 35t-88 16.5t-108.5 4q-63 0 -140 -10t-155 -27v217q98 27 199.5 37t193.5 10q96 0 179 -20t143.5 -63t95.5 -108t35 -153v-743h-266v57q-72 -35 -163 -53t-163 -18 q-154 0 -248 88t-94 254zM367 340q0 -137 143 -137q55 0 118.5 20.5t116.5 50.5v230q-104 -2 -168.5 -9.5t-115.5 -23.5q-45 -16 -69.5 -45t-24.5 -86z" />
<glyph unicode="b" horiz-adv-x="1175" d="M131 0v1458l275 82v-491q66 18 120 27t113 9q129 0 215 -40.5t139.5 -113.5t76 -175.5t22.5 -225.5q0 -125 -21.5 -225t-72 -172t-136.5 -110.5t-215 -38.5q-63 0 -128.5 20.5t-112.5 52.5v-57h-275zM406 274q49 -29 107 -46t105 -17q59 0 97.5 23.5t59 66.5t27.5 101.5 t7 127.5q0 66 -7 125.5t-28.5 103.5t-58.5 70.5t-97 26.5q-49 0 -100 -9t-112 -28v-545z" />
<glyph unicode="c" horiz-adv-x="976" d="M78 539q0 123 25.5 224t82 173t144.5 111.5t215 39.5q84 0 176 -14t178 -49v-215q-96 29 -175 38t-128 9q-74 0 -119 -21.5t-71.5 -63.5t-36 -100.5t-9.5 -131.5q0 -80 9.5 -140.5t36 -101.5t72.5 -61.5t120 -20.5q63 0 136 9t181 40v-215q-96 -37 -189 -51t-185 -14 q-125 0 -213 39.5t-143.5 111.5t-81 174.5t-25.5 229.5z" />
<glyph unicode="d" horiz-adv-x="1175" d="M88 530q0 123 22.5 225.5t75 175.5t139.5 113.5t214 40.5q59 0 114.5 -10t120.5 -26v409l273 82v-1540h-273v57q-49 -31 -119.5 -52t-136.5 -21q-121 0 -203 38.5t-133 110.5t-72.5 172.5t-21.5 224.5zM371 530q0 -70 7 -128t27.5 -101t58.5 -66.5t97 -23.5 q47 0 109.5 18.5t103.5 44.5v543q-57 16 -114.5 27.5t-98.5 11.5q-59 0 -96 -26.5t-58.5 -70.5t-28.5 -103.5t-7 -125.5z" />
<glyph unicode="e" d="M84 526q0 301 122 431t374 130q246 0 361.5 -122.5t115.5 -405.5q0 -33 -2 -73t-6 -78h-687q10 -100 59.5 -147.5t166.5 -47.5q49 0 98 3t100.5 10t108.5 20.5t123 32.5v-213q-119 -41 -231.5 -60.5t-215.5 -19.5q-133 0 -225 31.5t-150.5 98t-85 169t-26.5 241.5z M360 629h428q-6 117 -50 175t-158 58q-119 0 -164 -58.5t-56 -174.5z" />
<glyph unicode="f" horiz-adv-x="860" d="M25 864v234h192v98q0 68 17.5 129t53.5 108.5t91 76t133 32.5q22 1 45 1q58 0 119 -7q86 -10 153 -39v-215q-27 8 -59.5 15.5t-65 12.5t-62.5 8t-52 3q-66 0 -82 -28.5t-16 -92.5v-102h303v-234h-303v-864h-275v864h-192z" />
<glyph unicode="g" horiz-adv-x="1169" d="M82 567q0 123 21.5 220.5t72.5 163t136 100t210 34.5q59 0 124 -15t116 -38v43h274v-1126q0 -90 -33.5 -154.5t-95 -107.5t-144.5 -63.5t-181 -20.5q-86 0 -183.5 12t-199.5 37v213q39 -8 81 -14.5t79.5 -11.5t71.5 -8t56 -3q68 0 119 5t86 21.5t52.5 47t17.5 82.5v79 q-59 -23 -116 -30.5t-116 -7.5q-129 0 -215 38.5t-138 109.5t-73.5 171t-21.5 223zM365 567q0 -66 6 -124t25.5 -101t54 -68.5t92.5 -25.5q53 0 108.5 11t110.5 28v518q-47 23 -102.5 37t-114.5 14t-94 -19.5t-54.5 -56.5t-25.5 -91t-6 -122z" />
<glyph unicode="h" horiz-adv-x="1200" d="M131 0v1458l275 82v-526q51 23 98 37q55 16 110.5 25t116.5 9q86 0 150.5 -26.5t106.5 -72.5t62.5 -109.5t20.5 -137.5v-739h-274v739q0 63 -33 91t-98 28q-27 0 -70 -10t-96 -29q-45 -14 -94 -33v-786h-275z" />
<glyph unicode="i" horiz-adv-x="491" d="M109 0v1073h274v-1073h-274zM109 1184v305h274v-305h-274z" />
<glyph unicode="j" horiz-adv-x="471" d="M-205 -147q55 -14 106.5 -21.5t84.5 -9.5q61 0 86.5 21.5t25.5 78.5v1151h275v-1110q0 -72 -20.5 -136.5t-60.5 -113.5t-98.5 -78.5t-132.5 -29.5q-137 0 -266 33v215zM98 1184v305h275v-305h-275z" />
<glyph unicode="k" horiz-adv-x="1081" d="M104 0v1458l275 82v-835l377 368h348l-539 -524l537 -549h-340l-383 387v-387h-275z" />
<glyph unicode="l" horiz-adv-x="491" d="M109 0v1458l274 82v-1540h-274z" />
<glyph unicode="m" horiz-adv-x="1892" d="M133 0v1014l273 82v-76q53 20 102 35q108 32 226 32h7q86 0 150.5 -26.5t105.5 -73.5h2q92 39 177 64q116 36 236 36h7q86 0 150.5 -26.5t106.5 -72.5t62.5 -109.5t20.5 -137.5v-741h-274v741q0 63 -34 91t-99 28q-33 0 -79 -11t-99 -30q-47 -14 -95 -35q2 -20 2 -43 v-741h-272v741q0 63 -35 91t-100 28q-57 0 -168 -31q-49 -14 -100 -32v-797h-273z" />
<glyph unicode="n" horiz-adv-x="1198" d="M121 0v1012l276 82v-86q59 27 115 45q108 34 226 34h7q86 0 149.5 -25.5t103.5 -71.5t59.5 -109.5t19.5 -137.5v-743h-272v743q0 63 -31 90t-94 27t-168 -33q-53 -18 -115 -43v-784h-276z" />
<glyph unicode="o" horiz-adv-x="1165" d="M84 528q0 129 27.5 233.5t87 176.5t153.5 110.5t230 38.5q135 0 229 -38.5t153.5 -110.5t86 -176.5t26.5 -233.5q0 -125 -26.5 -225t-86 -171t-153.5 -108.5t-229 -37.5q-133 0 -228.5 38.5t-155 109.5t-87 171.5t-27.5 222.5zM367 528q0 -176 51 -246.5t164 -70.5 q104 0 158.5 70.5t54.5 246.5q0 180 -54.5 257t-158.5 77q-113 0 -164 -76.5t-51 -257.5z" />
<glyph unicode="p" horiz-adv-x="1173" d="M131 -401v1415l275 82v-64q115 53 233 55q129 0 215 -37.5t139.5 -108.5t76 -170t22.5 -222t-22.5 -226.5t-76 -178t-139.5 -116.5t-215 -42q-55 0 -111.5 8t-121.5 29v-342zM406 242q63 -18 113 -24.5t97 -6.5q59 0 96.5 27.5t59 74.5t29.5 107.5t8 128.5t-7 125 t-27.5 98t-58.5 64.5t-98 23.5q-53 0 -107 -14.5t-105 -36.5v-567z" />
<glyph unicode="q" horiz-adv-x="1173" d="M82 549q0 123 22.5 222t74.5 170t136 108.5t209 37.5q72 0 132.5 -16t111.5 -39v43h272v-1394l-272 -82v424q-66 -18 -123 -27.5t-110 -9.5q-129 0 -215.5 42t-139.5 116.5t-75.5 178t-22.5 226.5zM365 549q0 -68 8 -128.5t29.5 -107.5t58.5 -74.5t96 -27.5h12 q47 0 99.5 6t99.5 23v569q-106 51 -213 51q-59 0 -97 -23.5t-58.5 -64.5t-27.5 -98.5t-7 -124.5z" />
<glyph unicode="r" horiz-adv-x="862" d="M117 0v1014l274 82v-66q35 12 70 23q99 28 206 28h7q29 0 61.5 -1t73.5 -5v-237q-45 4 -76 4h-59q-109 0 -207 -23q-37 -8 -76 -18v-801h-274z" />
<glyph unicode="s" horiz-adv-x="1056" d="M78 774q0 86 32.5 145.5t90 96.5t134.5 54t167 17q104 0 208.5 -17t207.5 -42v-217q-117 25 -219.5 38t-194.5 13q-80 0 -115 -18.5t-35 -59.5q0 -49 43 -74.5t158 -45.5q211 -41 314.5 -122t103.5 -229q0 -176 -124 -251.5t-347 -75.5q-41 0 -96.5 5t-111.5 14 t-109.5 21.5t-92.5 28.5v213q119 -33 216.5 -45t174.5 -12q115 0 164 18.5t49 77.5q0 27 -9 45.5t-32.5 32.5t-64.5 25.5t-107 25.5q-205 39 -305 116t-100 222z" />
<glyph unicode="t" horiz-adv-x="847" d="M31 850v225h188v271l270 81v-352h302v-225h-302v-531q0 -66 17.5 -93t83.5 -27q35 0 99.5 10t135.5 27v-216q-79 -25 -161 -37q-62 -9 -117 -9q-19 0 -37 1q-78 4 -132 34t-90 77t-52.5 108.5t-16.5 129.5v526h-188z" />
<glyph unicode="u" horiz-adv-x="1198" d="M127 328v686l274 82v-783q0 -53 32 -76.5t95 -23.5q66 0 131.5 16.5t133.5 38.5v807h272v-1075h-272v55q-78 -29 -155 -49t-149 -20q-74 0 -140 18.5t-115.5 59t-78 105t-28.5 159.5z" />
<glyph unicode="v" horiz-adv-x="1073" d="M6 1075h268l265 -799l264 799h264l-369 -1075h-323z" />
<glyph unicode="w" horiz-adv-x="1679" d="M20 1075h271l209 -803l166 803h352l168 -803l200 803h271l-299 -1075h-342l-174 801l-176 -801h-342z" />
<glyph unicode="x" horiz-adv-x="1089" d="M-2 0l393 537l-393 538h309l238 -327l239 327h310l-394 -538l394 -537h-310l-239 326l-238 -326h-309z" />
<glyph unicode="y" horiz-adv-x="1198" d="M129 365v649l274 82v-746q0 -53 32 -74.5t95 -21.5q70 0 164 25q49 14 101 28v768h272v-1130q0 -88 -34 -152.5t-94 -107.5t-143 -63.5t-182 -20.5q-176 0 -383 47v217q39 -10 82 -17.5t82 -11.5t72 -7t53 -3q66 0 117 5t86 20.5t53.5 46t18.5 84.5v108q-63 -23 -121 -39 q-93 -26 -176 -26h-6q-74 0 -140.5 18t-116 58t-78 105.5t-28.5 158.5z" />
<glyph unicode="z" horiz-adv-x="1054" d="M98 0v209l518 637h-514v229h859v-192l-527 -654h563l-88 -229h-811z" />
<glyph unicode="{" horiz-adv-x="860" d="M66 616v220q125 8 173 37.5t48 101.5v381q0 129 67.5 193.5t190.5 64.5h237v-221h-204q-20 0 -26.5 -8.5t-6.5 -26.5v-391q0 -66 -24.5 -132.5t-96.5 -109.5q72 -41 96.5 -103.5t24.5 -129.5v-402q0 -18 6 -27.5t27 -9.5h204v-219h-237q-123 0 -190.5 64.5t-67.5 193.5 v389q0 72 -47 100.5t-174 34.5z" />
<glyph unicode="|" horiz-adv-x="612" d="M170 -168v1782h272v-1782h-272z" />
<glyph unicode="}" horiz-adv-x="860" d="M94 53h205q20 0 26.5 9.5t6.5 27.5v402q0 68 24.5 130t96.5 103q-72 43 -96.5 109.5t-24.5 132.5v391q0 18 -6.5 26.5t-26.5 8.5h-205v221h238q123 0 190.5 -64.5t67.5 -193.5v-381q0 -35 11 -59.5t37 -41t68 -25.5t105 -13v-220q-127 -6 -174 -34.5t-47 -100.5v-389 q0 -129 -67.5 -193.5t-190.5 -64.5h-238v219z" />
<glyph unicode="~" horiz-adv-x="946" d="M29 705q25 70 57.5 115.5t70.5 73.5t81 39t86 11q72 0 121 -29.5t90 -60.5q27 -20 55 -36.5t57 -16.5q10 0 24.5 11t29 28.5t27.5 39t24 42.5l155 -113q-27 -70 -61.5 -115t-72.5 -72.5t-78 -39t-77 -11.5q-61 0 -109 28t-89 63q-25 20 -53.5 35.5t-57.5 15.5 q-18 0 -36.5 -11.5t-36 -29t-33 -37t-25.5 -37.5z" />
<glyph unicode="&#xa1;" horiz-adv-x="618" d="M172 1208v281h279v-281h-279zM176 0l19 1069h235l23 -1069h-277z" />
<glyph unicode="&#xa2;" horiz-adv-x="976" d="M78 539q0 123 25.5 224t82 173t144.5 111q70 33 166 38v205h229v-219q90 -14 174 -47v-215q-92 27 -174 37v-623h4q78 10 186 41v-215q-96 -37 -190 -51v-221h-229v209q-96 6 -168 37q-88 41 -143.5 112.5t-81 174t-25.5 229.5zM350 539q0 -80 9.5 -140.5t36 -101.5 t71.5 -61q12 -6 29 -11v621q-16 -6 -29 -12q-45 -20 -71.5 -62.5t-36 -101t-9.5 -131.5z" />
<glyph unicode="&#xa3;" horiz-adv-x="1331" d="M84 225q-4 74 29.5 126t97.5 85q27 14 62.5 21.5t72.5 7.5t73 -6t62 -21q-4 49 -11 104.5t-24 104.5h-282v213h219q-18 51 -35.5 117.5t-17.5 124.5q0 197 107.5 299t322.5 102q88 0 163.5 -28.5t131 -83t87.5 -131t36 -173.5h-220q-16 94 -61 142.5t-137 48.5 q-152 0 -152 -164q0 -55 15.5 -117.5t40.5 -136.5h542l-88 -213h-411q16 -78 22 -161t0 -160q66 -51 124 -87t93 -36q18 0 35.5 7t33 27.5t30 57.5t26.5 96l213 -59q-25 -92 -52.5 -157.5t-65.5 -107.5t-91 -60.5t-129 -18.5q-63 0 -146 36.5t-169 106.5 q-41 -59 -105.5 -102t-156.5 -43q-59 0 -110.5 12t-89.5 41t-60.5 75t-24.5 111zM299 209q6 -57 59 -57q33 0 55.5 22.5t45.5 81.5q-29 14 -50.5 20.5t-48.5 6.5q-29 0 -47 -18.5t-14 -55.5z" />
<glyph unicode="&#xa4;" horiz-adv-x="1433" d="M45 1217l156 155l184 -178q66 49 147.5 77.5t174.5 28.5q90 0 174 -26.5t159 -83.5l193 182l153 -155l-208 -185q35 -59 55 -130t20 -154q0 -88 -22.5 -164t-63.5 -138l209 -192l-147 -160l-201 203q-66 -51 -149.5 -80t-173.5 -29q-84 0 -165 26t-145 71l-194 -191 l-148 160l199 182q-41 61 -66.5 140t-25.5 169q0 86 22.5 160t61.5 133zM395 745q0 -78 25.5 -140t68.5 -108t99.5 -71t116.5 -25q63 0 119.5 25t99.5 70t68.5 109.5t25.5 142.5q0 70 -23.5 131t-64.5 107t-99.5 73.5t-125.5 27.5q-66 0 -123.5 -26.5t-98.5 -72.5 t-64.5 -108.5t-23.5 -134.5z" />
<glyph unicode="&#xa5;" horiz-adv-x="1433" d="M55 1489h312l352 -576l352 576h311l-407 -666h315v-188h-428v-103h428v-188h-428v-344h-284v344h-437v188h437v103h-437v188h324z" />
<glyph unicode="&#xa6;" horiz-adv-x="612" d="M166 -168v746h276v-746h-276zM166 868v746h276v-746h-276z" />
<glyph unicode="&#xa7;" horiz-adv-x="1034" d="M68 764q0 78 27.5 135t78.5 94q-96 78 -96 219q0 86 32.5 145.5t90 96.5t134.5 54.5t167 17.5q104 0 208.5 -17.5t207.5 -42.5v-217q-117 25 -219.5 38t-194.5 13q-80 0 -115 -18t-35 -59q0 -49 43 -75t158 -46q211 -41 314.5 -122t103.5 -228q0 -156 -101 -234 q90 -84 91 -215q0 -176 -124 -252t-347 -76q-41 0 -96.5 5.5t-112 14.5t-109.5 21.5t-92 28.5v213q119 -33 216 -45t175 -12q115 0 164 18.5t49 77.5q0 27 -9 45t-32.5 32.5t-64.5 26t-107 25.5q-205 39 -305 115.5t-100 222.5zM334 788q0 -31 9 -52t31.5 -37.5t61.5 -28 t99 -23.5q33 -6 60.5 -12t55.5 -17q59 35 60 111q0 35 -8.5 57.5t-32 38t-64 27t-106.5 25.5q-23 4 -45.5 8t-40.5 10q-43 -14 -61.5 -42t-18.5 -65z" />
<glyph unicode="&#xa8;" horiz-adv-x="1105" d="M170 1313v213h223v-213h-223zM713 1313v213h223v-213h-223z" />
<glyph unicode="&#xa9;" horiz-adv-x="1638" d="M70 737q0 156 56 293t156.5 238.5t237.5 161t297 59.5t297 -59.5t238.5 -161t159 -238.5t57.5 -293t-57.5 -293t-159 -239.5t-238.5 -161.5t-297 -59t-297 59t-237.5 161.5t-156.5 240t-56 292.5zM242 737q0 -133 44 -243.5t121.5 -190.5t183 -125t228.5 -45 q121 0 226.5 45t184.5 125t124 190.5t45 243.5q0 131 -45 242t-124 190.5t-184.5 123.5t-226.5 44q-123 0 -228.5 -44t-183 -123.5t-121.5 -190.5t-44 -242zM455 741q0 94 23.5 171t68.5 132.5t112.5 85t155.5 29.5q59 0 134 -13t143 -40v-176q-66 16 -131.5 28.5 t-106.5 12.5q-102 0 -140 -58.5t-38 -171.5q0 -125 38 -181t142 -56q49 0 108.5 10t137.5 33v-176q-72 -29 -146.5 -43.5t-144.5 -14.5q-174 0 -265 116t-91 312z" />
<glyph unicode="&#xaa;" horiz-adv-x="1024" d="M158 655v162h706v-162h-706zM193 1120q0 78 32.5 135.5t136.5 90.5h-2q39 14 91.5 21t138.5 9q-10 31 -47 38t-97 7q-25 0 -81 -7t-115 -19v166q70 18 134.5 26t117.5 8q127 0 210 -56t83 -171v-465h-197v25q-49 -20 -92 -26.5t-86 -6.5q-102 0 -164.5 57.5t-62.5 167.5z M401 1128q0 -63 66 -63q29 0 63.5 8t61.5 23v114q-55 -2 -89 -6t-59 -14h2q-23 -8 -34 -20.5t-11 -41.5z" />
<glyph unicode="&#xab;" horiz-adv-x="1433" d="M96 451v176l690 440v-262l-409 -266l409 -265v-264zM649 451v176l690 440v-262l-409 -266l409 -265v-264z" />
<glyph unicode="&#xac;" horiz-adv-x="1433" d="M33 51v213h1362v-571h-254v358h-1108z" />
<glyph unicode="&#xad;" horiz-adv-x="1024" d="M102 676v176h820v-176h-820z" />
<glyph unicode="&#xae;" horiz-adv-x="1638" d="M70 737q0 156 56 293t156.5 238.5t237.5 161t297 59.5t297 -59.5t238.5 -161t159 -238.5t57.5 -293t-57.5 -293t-159 -239.5t-238.5 -161.5t-297 -59t-297 59t-237.5 161.5t-156.5 240t-56 292.5zM242 737q0 -133 44 -243.5t121.5 -190.5t183 -125t228.5 -45 q121 0 226.5 45t184.5 125t124 190.5t45 243.5q0 131 -45 242t-124 190.5t-184.5 123.5t-226.5 44q-123 0 -228.5 -44t-183 -123.5t-121.5 -190.5t-44 -242zM520 279v919h344q160 0 236 -65.5t76 -229.5t-76 -239q-35 -35 -86 -54l184 -331h-199l-172 309h-129v-309h-178z M698 741h150q143 0 143 162q0 82 -34.5 114t-108.5 32h-150v-308z" />
<glyph unicode="&#xaf;" horiz-adv-x="1024" d="M164 1571v176h696v-176h-696z" />
<glyph unicode="&#xb0;" horiz-adv-x="913" d="M131 1208q0 154 80 241t246 87q170 0 248.5 -87t78.5 -241q0 -152 -78.5 -238.5t-248.5 -86.5q-166 0 -246 87t-80 238zM326 1208q0 -59 27.5 -96t103.5 -37t104.5 37t28.5 96t-29 97t-104 38q-76 0 -103.5 -37.5t-27.5 -97.5z" />
<glyph unicode="&#xb1;" horiz-adv-x="1085" d="M100 0v209h883v-209h-883zM100 651v209h336v346h209v-346h338v-209h-338v-348h-209v348h-336z" />
<glyph unicode="&#xb2;" horiz-adv-x="614" d="M29 788v136q104 94 169.5 160.5t104.5 114.5t53.5 85t14.5 72q0 49 -24.5 72.5t-90.5 23.5q-41 0 -98.5 -10t-122.5 -29v162q27 10 58.5 19.5t64 15.5t62.5 10t52 4q152 0 223.5 -63.5t71.5 -196.5q0 -63 -21.5 -117.5t-58 -102.5t-84 -93t-96.5 -90h305l-61 -173h-522z " />
<glyph unicode="&#xb3;" horiz-adv-x="634" d="M27 823v160q53 -12 90 -18.5t65.5 -9.5t51 -3h47.5q61 0 86.5 21.5t27.5 64.5q-2 61 -49 75.5t-119 14.5h-73v172h73q25 0 49.5 3.5t44 12.5t33 27.5t13.5 47.5q0 31 -19.5 45t-66.5 16q-55 0 -108.5 -7t-119.5 -28v158q53 23 118 36t110 13q143 0 212.5 -55t69.5 -174 q0 -57 -21.5 -95t-56.5 -67q51 -29 80 -74t29 -123q0 -137 -79 -197.5t-220 -60.5q-66 0 -131.5 11.5t-136.5 33.5z" />
<glyph unicode="&#xb4;" horiz-adv-x="573" d="M113 1581l127 260h241l-215 -260h-153z" />
<glyph unicode="&#xb5;" horiz-adv-x="1198" d="M127 -389v1403l274 82v-795q2 -43 31 -65q33 -23 96 -23q66 0 131.5 16.5t133.5 38.5v807h272v-1075h-272v66q-78 -37 -155 -58.5t-149 -21.5q-45 0 -88 6v-381h-274z" />
<glyph unicode="&#xb6;" horiz-adv-x="1239" d="M109 1075q0 88 21.5 164t72.5 131t138 87t216 32h465v-1489h-166v1356h-156v-1356h-165v662q-121 8 -203 40.5t-131 86t-70.5 126t-21.5 160.5z" />
<glyph unicode="&#xb7;" horiz-adv-x="643" d="M209 541v233h244v-233h-244z" />
<glyph unicode="&#xb8;" horiz-adv-x="649" d="M145 -268q41 -6 73 -9.5t79 -5.5q39 -2 68.5 8.5t29.5 51.5q0 35 -14 48t-47 13h-160l57 209h127l-22 -113h45q68 0 109.5 -37.5t41.5 -119.5q0 -78 -44 -127t-144 -49q-61 0 -104 5t-95 15v111z" />
<glyph unicode="&#xb9;" horiz-adv-x="462" d="M27 1382v152l348 84v-830h-189v623z" />
<glyph unicode="&#xba;" horiz-adv-x="1024" d="M158 655v162h706v-162h-706zM180 1239q0 160 75 256t253 96q174 0 248.5 -96t74.5 -256t-74.5 -253t-248.5 -93q-178 0 -253 93t-75 253zM389 1239q0 -100 27.5 -135t91.5 -35q53 0 83 35t30 135q0 102 -30 139t-83 37q-63 0 -91 -37t-28 -139z" />
<glyph unicode="&#xbb;" horiz-adv-x="1433" d="M96 10v264l410 265l-410 266v262l690 -440v-176zM649 10v264l410 265l-410 266v262l690 -440v-176z" />
<glyph unicode="&#xbc;" horiz-adv-x="1626" d="M31 1219v159l264 101h127v-885h-229v651zM141 0l1012 1489h262l-1009 -1489h-265zM864 166v156l373 575h227v-543h174l-77 -188h-97v-166h-200v166h-400zM1116 354h148v246z" />
<glyph unicode="&#xbd;" horiz-adv-x="1714" d="M31 1219v159l264 101h127v-885h-229v651zM100 0l1012 1489h262l-1009 -1489h-265zM1044 0v160l203 198q72 72 118 135.5t42 122.5q-4 51 -26.5 75t-82.5 24q-41 0 -104.5 -12.5t-140.5 -34.5v182q29 10 63.5 20.5t70.5 17.5t68.5 12t57.5 5q328 0 327 -280 q0 -55 -15 -103.5t-48 -97.5t-85 -105.5t-126 -125.5h324l-72 -193h-574z" />
<glyph unicode="&#xbe;" horiz-adv-x="1689" d="M43 627v182q57 -12 98 -20.5t74 -13.5t58.5 -7t50.5 -2q61 0 85.5 22.5t26.5 67.5q0 63 -48 79.5t-122 16.5h-86v193h86q25 0 50.5 3t45 12t33 26.5t13.5 46.5q0 31 -18.5 46t-65.5 17q-53 0 -113.5 -14t-138.5 -37v185q31 12 64.5 22t67.5 17.5t65.5 12.5t54.5 5 q158 0 234.5 -59.5t76.5 -190.5q0 -57 -22.5 -97t-59.5 -71q51 -31 84 -80t33 -133q-2 -150 -89 -219.5t-241 -69.5q-68 0 -142.5 18.5t-154.5 41.5zM266 0l1012 1489h254l-1010 -1489h-256zM920 166v156l372 575h228v-543h174l-78 -188h-96v-166h-201v166h-399zM1171 354 h148v246z" />
<glyph unicode="&#xbf;" horiz-adv-x="1259" d="M209 334q0 141 52 260t167 217q59 47 95 91t36 97v121h250v-141q0 -61 -14.5 -106.5t-42 -84t-68.5 -75.5t-94 -82q-51 -39 -82 -98.5t-31 -143.5q0 -104 47 -155.5t158 -51.5q72 0 165 16.5t195 45.5v-217q-233 -80 -401 -80q-90 0 -169 22.5t-137.5 70.5t-92 120.5 t-33.5 173.5zM547 1210v281h278v-281h-278z" />
<glyph unicode="&#xc0;" horiz-adv-x="1333" d="M10 0l484 1489h348l481 -1489h-287l-112 358h-514l-113 -358h-287zM453 1841h241l127 -260h-153zM485 594h363l-180 573z" />
<glyph unicode="&#xc1;" horiz-adv-x="1333" d="M10 0l484 1489h348l481 -1489h-287l-112 358h-514l-113 -358h-287zM485 594h363l-180 573zM514 1581l127 260h242l-215 -260h-154z" />
<glyph unicode="&#xc2;" horiz-adv-x="1333" d="M10 0l484 1489h348l481 -1489h-287l-112 358h-514l-113 -358h-287zM391 1581l209 260h137l217 -260h-188l-98 131l-97 -131h-180zM485 594h363l-180 573z" />
<glyph unicode="&#xc3;" horiz-adv-x="1333" d="M10 0l484 1489h348l481 -1489h-287l-112 358h-514l-113 -358h-287zM389 1704q23 72 73 101.5t105 29.5q43 0 77 -21.5t63 -44.5q20 -14 39.5 -26t54.5 -12q25 0 50.5 24.5t35.5 48.5l65 -92q-29 -78 -78 -104.5t-96 -26.5q-35 0 -64.5 17.5t-58.5 39.5q-23 18 -45 31.5 t-55 13.5q-37 0 -62.5 -23.5t-39.5 -45.5zM485 594h363l-180 573z" />
<glyph unicode="&#xc4;" horiz-adv-x="1333" d="M10 0l484 1489h348l481 -1489h-287l-112 358h-514l-113 -358h-287zM352 1581v227h213v-227h-213zM485 594h363l-180 573zM770 1581v227h213v-227h-213z" />
<glyph unicode="&#xc5;" horiz-adv-x="1333" d="M10 0l484 1489h348l481 -1489h-287l-112 358h-514l-113 -358h-287zM485 594h363l-180 573zM489 1700q0 43 15.5 74.5t41 53t57.5 32t65 10.5q70 0 124 -42t54 -128t-54.5 -125t-123.5 -39q-33 0 -65 9t-57.5 29.5t-41 51.5t-15.5 74zM602 1700q0 -29 18.5 -43.5 t47.5 -14.5t46 14.5t17 43.5t-17.5 44t-45.5 15q-29 0 -47.5 -15t-18.5 -44z" />
<glyph unicode="&#xc6;" horiz-adv-x="1843" d="M16 0l283 594l426 895h1036v-238h-579v-381h555l-92 -237h-463v-395h579v-238h-862v358h-426l-170 -358h-287zM586 594h313v655z" />
<glyph unicode="&#xc7;" horiz-adv-x="1189" d="M78 748q0 174 31.5 314t102.5 238.5t183.5 150.5t272.5 52q119 0 224 -17.5t226 -55.5v-216q-66 14 -119 24.5t-102 17t-96 8.5t-101 2q-180 0 -257.5 -135.5t-77.5 -382.5q0 -119 18 -215.5t59 -164t105.5 -104.5t154.5 -37q49 0 95.5 3t95.5 10.5t103.5 17.5t121.5 27 v-219q-117 -35 -231 -56q-86 -14 -168 -18l-10 -58h45q68 0 109.5 -37.5t41.5 -119.5q0 -78 -44 -127t-144 -49q-61 0 -114.5 5t-104.5 15v111q41 -6 72.5 -9.5t78.5 -5.5q39 -2 69 8.5t30 51.5q0 35 -14.5 48t-47.5 13h-160l43 158q-98 12 -174 49q-113 57 -183.5 158.5 t-102 240t-31.5 304.5z" />
<glyph unicode="&#xc8;" horiz-adv-x="1230" d="M129 0v1489h1006v-238h-723v-381h698l-92 -237h-606v-395h723v-238h-1006zM391 1841h242l127 -260h-154z" />
<glyph unicode="&#xc9;" horiz-adv-x="1230" d="M129 0v1489h1006v-238h-723v-381h698l-92 -237h-606v-395h723v-238h-1006zM494 1581l127 260h241l-215 -260h-153z" />
<glyph unicode="&#xca;" horiz-adv-x="1230" d="M129 0v1489h1006v-238h-723v-381h698l-92 -237h-606v-395h723v-238h-1006zM391 1581l209 260h137l217 -260h-188l-98 131l-97 -131h-180z" />
<glyph unicode="&#xcb;" horiz-adv-x="1230" d="M129 0v1489h1006v-238h-723v-381h698l-92 -237h-606v-395h723v-238h-1006zM352 1581v227h213v-227h-213zM770 1581v227h213v-227h-213z" />
<glyph unicode="&#xcc;" horiz-adv-x="495" d="M-10 1841h241l127 -260h-153zM106 0v1489h283v-1489h-283z" />
<glyph unicode="&#xcd;" horiz-adv-x="495" d="M106 0v1489h283v-1489h-283zM139 1581l127 260h242l-215 -260h-154z" />
<glyph unicode="&#xce;" horiz-adv-x="495" d="M-33 1581l209 260h137l217 -260h-188l-98 131l-97 -131h-180zM106 0v1489h283v-1489h-283z" />
<glyph unicode="&#xcf;" horiz-adv-x="528" d="M-10 1581v227h213v-227h-213zM121 0v1489h282v-1489h-282zM326 1581v227h213v-227h-213z" />
<glyph unicode="&#xd0;" horiz-adv-x="1626" d="M82 641v209h250v639h538q178 0 293 -50t182.5 -144.5t93 -226.5t25.5 -298q0 -170 -24.5 -311.5t-90 -243.5t-181 -158.5t-298.5 -56.5h-538v641h-250zM614 238h238q104 0 169.5 42t100.5 114.5t47.5 168.5t12.5 207q0 106 -12.5 195.5t-47.5 153t-100.5 98t-169.5 34.5 h-238v-401h248l-80 -209h-168v-403z" />
<glyph unicode="&#xd1;" horiz-adv-x="1437" d="M135 0v1489h387l508 -1135v1135h273v-1489h-388l-507 1135v-1135h-273zM449 1704q23 72 72.5 101.5t105.5 29.5q43 0 76.5 -21.5t62.5 -44.5q20 -14 39.5 -26t54.5 -12q25 0 50.5 24.5t35.5 48.5l66 -92q-29 -78 -78 -104.5t-96 -26.5q-35 0 -65 17.5t-58 39.5 q-23 18 -45.5 31.5t-55.5 13.5q-37 0 -62.5 -23.5t-39.5 -45.5z" />
<glyph unicode="&#xd2;" horiz-adv-x="1406" d="M100 739q0 184 31 326.5t101.5 240t185 147.5t284.5 50q168 0 284 -50t186.5 -147.5t101.5 -239.5t31 -327q0 -184 -31 -323.5t-101.5 -234.5t-186.5 -143t-284 -48q-170 0 -284.5 48t-185 143t-101.5 234.5t-31 323.5zM383 739q0 -260 71.5 -386t247.5 -126t248 126 t72 386q0 256 -71.5 391.5t-248.5 135.5q-176 0 -247.5 -134.5t-71.5 -392.5zM473 1841h242l127 -260h-154z" />
<glyph unicode="&#xd3;" horiz-adv-x="1406" d="M100 739q0 184 31 326.5t101.5 240t185 147.5t284.5 50q168 0 284 -50t186.5 -147.5t101.5 -239.5t31 -327q0 -184 -31 -323.5t-101.5 -234.5t-186.5 -143t-284 -48q-170 0 -284.5 48t-185 143t-101.5 234.5t-31 323.5zM383 739q0 -260 71.5 -386t247.5 -126t248 126 t72 386q0 256 -71.5 391.5t-248.5 135.5q-176 0 -247.5 -134.5t-71.5 -392.5zM535 1581l127 260h241l-215 -260h-153z" />
<glyph unicode="&#xd4;" horiz-adv-x="1406" d="M100 739q0 184 31 326.5t101.5 240t185 147.5t284.5 50q168 0 284 -50t186.5 -147.5t101.5 -239.5t31 -327q0 -184 -31 -323.5t-101.5 -234.5t-186.5 -143t-284 -48q-170 0 -284.5 48t-185 143t-101.5 234.5t-31 323.5zM383 739q0 -260 71.5 -386t247.5 -126t248 126 t72 386q0 256 -71.5 391.5t-248.5 135.5q-176 0 -247.5 -134.5t-71.5 -392.5zM424 1581l209 260h137l217 -260h-188l-99 131l-96 -131h-180z" />
<glyph unicode="&#xd5;" horiz-adv-x="1406" d="M100 739q0 184 31 326.5t101.5 240t185 147.5t284.5 50q168 0 284 -50t186.5 -147.5t101.5 -239.5t31 -327q0 -184 -31 -323.5t-101.5 -234.5t-186.5 -143t-284 -48q-170 0 -284.5 48t-185 143t-101.5 234.5t-31 323.5zM383 739q0 -260 71.5 -386t247.5 -126t248 126 t72 386q0 256 -71.5 391.5t-248.5 135.5q-176 0 -247.5 -134.5t-71.5 -392.5zM410 1704q23 72 72.5 101.5t105.5 29.5q43 0 76.5 -21.5t62.5 -44.5q20 -14 39.5 -26t54.5 -12q25 0 50.5 24.5t35.5 48.5l66 -92q-29 -78 -78 -104.5t-96 -26.5q-35 0 -64.5 17.5t-58.5 39.5 q-23 18 -45.5 31.5t-55.5 13.5q-37 0 -62.5 -23.5t-39.5 -45.5z" />
<glyph unicode="&#xd6;" horiz-adv-x="1406" d="M100 739q0 184 31 326.5t101.5 240t185 147.5t284.5 50q168 0 284 -50t186.5 -147.5t101.5 -239.5t31 -327q0 -184 -31 -323.5t-101.5 -234.5t-186.5 -143t-284 -48q-170 0 -284.5 48t-185 143t-101.5 234.5t-31 323.5zM383 739q0 -260 71.5 -386t247.5 -126t248 126 t72 386q0 256 -71.5 391.5t-248.5 135.5q-176 0 -247.5 -134.5t-71.5 -392.5zM385 1581v227h213v-227h-213zM803 1581v227h213v-227h-213z" />
<glyph unicode="&#xd7;" horiz-adv-x="1085" d="M43 414l334 338l-330 335l170 162l324 -329l325 329l170 -162l-329 -335l333 -338l-174 -158l-325 330l-324 -330z" />
<glyph unicode="&#xd8;" horiz-adv-x="1406" d="M100 739q0 184 31 326.5t101.5 240t185 147.5t284.5 50q168 0 283 -51q31 -12 59 -31l93 160h202l-163 -281q68 -96 98 -235q31 -141 31 -326q0 -184 -31 -323.5t-101.5 -234.5t-186.5 -143t-284 -48q-158 0 -268 41l-106 -185h-201l160 273q-31 29 -56 61 q-70 96 -100.5 235.5t-30.5 323.5zM383 739q0 -231 55 -356l469 805q-72 78 -205 78q-176 0 -247.5 -134.5t-71.5 -392.5zM563 252q59 -25 139 -25q176 0 248 126t72 386q0 150 -25 256z" />
<glyph unicode="&#xd9;" horiz-adv-x="1384" d="M133 485v1004h283v-1002q0 -141 74.5 -198.5t197.5 -57.5q129 0 203 57.5t74 198.5v1002h286v-1004q0 -135 -36.5 -229t-109.5 -153.5t-177.5 -86t-239.5 -26.5t-238.5 26.5t-174 86t-106.5 153.5t-36 229zM473 1841h242l127 -260h-154z" />
<glyph unicode="&#xda;" horiz-adv-x="1384" d="M133 485v1004h283v-1002q0 -141 74.5 -198.5t197.5 -57.5q129 0 203 57.5t74 198.5v1002h286v-1004q0 -135 -36.5 -229t-109.5 -153.5t-177.5 -86t-239.5 -26.5t-238.5 26.5t-174 86t-106.5 153.5t-36 229zM535 1581l127 260h241l-215 -260h-153z" />
<glyph unicode="&#xdb;" horiz-adv-x="1384" d="M133 485v1004h283v-1002q0 -141 74.5 -198.5t197.5 -57.5q129 0 203 57.5t74 198.5v1002h286v-1004q0 -135 -36.5 -229t-109.5 -153.5t-177.5 -86t-239.5 -26.5t-238.5 26.5t-174 86t-106.5 153.5t-36 229zM424 1581l209 260h137l217 -260h-188l-99 131l-96 -131h-180z " />
<glyph unicode="&#xdc;" horiz-adv-x="1384" d="M133 485v1004h283v-1002q0 -141 74.5 -198.5t197.5 -57.5q129 0 203 57.5t74 198.5v1002h286v-1004q0 -135 -36.5 -229t-109.5 -153.5t-177.5 -86t-239.5 -26.5t-238.5 26.5t-174 86t-106.5 153.5t-36 229zM385 1581v227h213v-227h-213zM803 1581v227h213v-227h-213z" />
<glyph unicode="&#xdd;" horiz-adv-x="1314" d="M-6 1489h311l352 -576l353 576h311l-520 -840v-649h-285v651zM514 1581l127 260h242l-215 -260h-154z" />
<glyph unicode="&#xde;" horiz-adv-x="1314" d="M143 0v1489h285v-215h279q258 0 381.5 -117t123.5 -379q0 -260 -122.5 -391t-382.5 -131h-279v-256h-285zM428 487h254q123 0 180.5 78t57.5 213q0 141 -57.5 203.5t-180.5 62.5h-254v-557z" />
<glyph unicode="&#xdf;" horiz-adv-x="1173" d="M125 0v1071q0 227 116.5 329.5t348.5 102.5q201 0 309.5 -83t108.5 -238q0 -55 -14.5 -98.5t-37 -78t-51 -63.5t-57.5 -53q-35 -33 -62.5 -63.5t-27.5 -71.5q0 -35 14 -52.5t37 -31.5l102 -58q96 -55 155.5 -133t59.5 -205q0 -133 -104 -208.5t-274 -75.5q-88 0 -155 15 t-142 50v207q80 -29 160.5 -43t140.5 -10q37 4 76.5 26.5t39.5 67.5q0 31 -24.5 55.5t-75.5 53.5l-86 49q-106 59 -157.5 126.5t-51.5 170.5q0 49 14.5 90t37 73.5t50 60.5t54.5 52q35 33 63.5 67t28.5 70q0 55 -29.5 81t-101.5 26q-109 0 -148 -52t-39 -171v-1055h-278z " />
<glyph unicode="&#xe0;" d="M86 328q0 59 11.5 111.5t40 95.5t77.5 76.5t125 56.5q88 27 192.5 36t212.5 11v30q0 37 -21.5 59.5t-58 35t-88 16.5t-108.5 4q-63 0 -140 -10t-155 -27v217q98 27 199.5 37t193.5 10q96 0 179 -20t143.5 -63t95.5 -108t35 -153v-743h-266v68q-72 -41 -163 -61.5 t-163 -20.5q-154 0 -248 88t-94 254zM350 1427h242l127 -260h-154zM367 340q0 -137 143 -137q55 0 118.5 20.5t116.5 50.5v230q-104 -2 -168.5 -9.5t-115.5 -23.5q-45 -16 -69.5 -45t-24.5 -86z" />
<glyph unicode="&#xe1;" d="M86 328q0 59 11.5 111.5t40 95.5t77.5 76.5t125 56.5q88 27 192.5 36t212.5 11v30q0 37 -21.5 59.5t-58 35t-88 16.5t-108.5 4q-63 0 -140 -10t-155 -27v217q98 27 199.5 37t193.5 10q96 0 179 -20t143.5 -63t95.5 -108t35 -153v-743h-266v68q-72 -41 -163 -61.5 t-163 -20.5q-154 0 -248 88t-94 254zM367 340q0 -137 143 -137q55 0 118.5 20.5t116.5 50.5v230q-104 -2 -168.5 -9.5t-115.5 -23.5q-45 -16 -69.5 -45t-24.5 -86zM453 1167l127 260h241l-215 -260h-153z" />
<glyph unicode="&#xe2;" d="M86 328q0 59 11.5 111.5t40 95.5t77.5 76.5t125 56.5q88 27 192.5 36t212.5 11v30q0 37 -21.5 59.5t-58 35t-88 16.5t-108.5 4q-63 0 -140 -10t-155 -27v217q98 27 199.5 37t193.5 10q96 0 179 -20t143.5 -63t95.5 -108t35 -153v-743h-266v68q-72 -41 -163 -61.5 t-163 -20.5q-154 0 -248 88t-94 254zM297 1167l209 260h137l217 -260h-188l-99 131l-96 -131h-180zM367 340q0 -137 143 -137q55 0 118.5 20.5t116.5 50.5v230q-104 -2 -168.5 -9.5t-115.5 -23.5q-45 -16 -69.5 -45t-24.5 -86z" />
<glyph unicode="&#xe3;" d="M86 328q0 59 11.5 111.5t40 95.5t77.5 76.5t125 56.5q88 27 192.5 36t212.5 11v30q0 37 -21.5 59.5t-58 35t-88 16.5t-108.5 4q-63 0 -140 -10t-155 -27v217q98 27 199.5 37t193.5 10q96 0 179 -20t143.5 -63t95.5 -108t35 -153v-743h-266v68q-72 -41 -163 -61.5 t-163 -20.5q-154 0 -248 88t-94 254zM297 1290q23 72 73 101.5t105 29.5q43 0 77 -21.5t62 -43.5q20 -14 40 -26.5t55 -12.5q25 0 50 24.5t36 49.5l65 -93q-29 -78 -78 -104.5t-96 -26.5q-35 0 -64.5 17.5t-58.5 40.5q-23 18 -45 31.5t-55 13.5q-37 0 -62.5 -23.5 t-40.5 -46.5zM367 340q0 -137 143 -137q55 0 118.5 20.5t116.5 50.5v230q-104 -2 -168.5 -9.5t-115.5 -23.5q-45 -16 -69.5 -45t-24.5 -86z" />
<glyph unicode="&#xe4;" d="M86 328q0 59 11.5 111.5t40 95.5t77.5 76.5t125 56.5q88 27 192.5 36t212.5 11v30q0 37 -21.5 59.5t-58 35t-88 16.5t-108.5 4q-63 0 -140 -10t-155 -27v217q98 27 199.5 37t193.5 10q96 0 179 -20t143.5 -63t95.5 -108t35 -153v-743h-266v68q-72 -41 -163 -61.5 t-163 -20.5q-154 0 -248 88t-94 254zM260 1167v228h213v-228h-213zM367 340q0 -137 143 -137q55 0 118.5 20.5t116.5 50.5v230q-104 -2 -168.5 -9.5t-115.5 -23.5q-45 -16 -69.5 -45t-24.5 -86zM678 1167v228h213v-228h-213z" />
<glyph unicode="&#xe5;" d="M86 328q0 59 11.5 111.5t40 95.5t77.5 76.5t125 56.5q88 27 192.5 36t212.5 11v30q0 37 -21.5 59.5t-58 35t-88 16.5t-108.5 4q-63 0 -140 -10t-155 -27v217q98 27 199.5 37t193.5 10q96 0 179 -20t143.5 -63t95.5 -108t35 -153v-743h-266v68q-72 -41 -163 -61.5 t-163 -20.5q-154 0 -248 88t-94 254zM367 340q0 -137 143 -137q55 0 118.5 20.5t116.5 50.5v230q-104 -2 -168.5 -9.5t-115.5 -23.5q-45 -16 -69.5 -45t-24.5 -86zM395 1298q0 43 15.5 75t41 53.5t57.5 31.5t64 10q70 0 124.5 -42t54.5 -128t-54.5 -124.5t-124.5 -38.5 q-33 0 -64.5 9t-57 29.5t-41 51t-15.5 73.5zM508 1298q0 -29 18.5 -43t46.5 -14q29 0 46.5 14.5t17.5 42.5q0 29 -17.5 44.5t-46.5 15.5t-47 -15.5t-18 -44.5z" />
<glyph unicode="&#xe6;" horiz-adv-x="1843" d="M66 328q0 59 11 111.5t39.5 95.5t78 76.5t124.5 56.5q88 27 192.5 36t213.5 11v30q0 37 -21.5 59.5t-58.5 35t-88 16.5t-108 4q-63 0 -140.5 -10t-154.5 -27v217q98 27 199.5 37t193.5 10q115 0 209 -32.5t155 -104.5q61 72 150.5 104.5t212.5 32.5q246 0 361.5 -122.5 t115.5 -405.5q0 -33 -2 -73t-6 -78h-686q10 -100 59 -147.5t166 -47.5q49 0 98.5 3t100.5 10t108.5 20.5t122.5 32.5v-213q-119 -41 -231.5 -60.5t-214.5 -19.5q-45 0 -95.5 4t-101.5 20.5t-101 48t-96 86.5q-68 -51 -133 -81.5t-125.5 -48t-112.5 -23.5t-93 -6 q-154 0 -248 88t-94 254zM346 340q0 -137 143 -137q37 0 77 9t81 24.5t80 37t72 45.5q-8 47 -11.5 92.5t-5.5 92.5q-104 -2 -197 -9.5t-145 -23.5q-45 -16 -69.5 -45t-24.5 -86zM1055 629h428q-6 117 -50 175t-159 58q-119 0 -164 -58.5t-55 -174.5z" />
<glyph unicode="&#xe7;" horiz-adv-x="976" d="M78 539q0 123 25.5 224t82 173t144.5 111.5t215 39.5q84 0 176 -14t178 -49v-215q-96 29 -175 38t-128 9q-74 0 -119 -21.5t-71.5 -63.5t-36 -100.5t-9.5 -131.5q0 -80 9.5 -140.5t36 -101.5t72.5 -61.5t120 -20.5q63 0 136 9t181 40v-215q-96 -37 -190 -51 q-66 -10 -131 -12l-10 -52h45q68 0 109.5 -37.5t41.5 -119.5q0 -78 -44 -127t-144 -49q-61 0 -114.5 5t-104.5 15v111q41 -6 72.5 -9.5t78.5 -5.5q39 -2 69 8.5t30 51.5q0 35 -14.5 48t-47.5 13h-160l41 152q-63 10 -114 33q-88 41 -143.5 112.5t-81 174t-25.5 229.5z" />
<glyph unicode="&#xe8;" d="M84 526q0 301 122 431t374 130q246 0 361.5 -122.5t115.5 -405.5q0 -33 -2 -73t-6 -78h-687q10 -100 59.5 -147.5t166.5 -47.5q49 0 98 3t100.5 10t108.5 20.5t123 32.5v-213q-119 -41 -231.5 -60.5t-215.5 -19.5q-133 0 -225 31.5t-150.5 98t-85 169t-26.5 241.5z M350 1427h242l127 -260h-154zM360 629h428q-6 117 -50 175t-158 58q-119 0 -164 -58.5t-56 -174.5z" />
<glyph unicode="&#xe9;" d="M84 526q0 301 122 431t374 130q246 0 361.5 -122.5t115.5 -405.5q0 -33 -2 -73t-6 -78h-687q10 -100 59.5 -147.5t166.5 -47.5q49 0 98 3t100.5 10t108.5 20.5t123 32.5v-213q-119 -41 -231.5 -60.5t-215.5 -19.5q-133 0 -225 31.5t-150.5 98t-85 169t-26.5 241.5z M360 629h428q-6 117 -50 175t-158 58q-119 0 -164 -58.5t-56 -174.5zM453 1167l127 260h241l-215 -260h-153z" />
<glyph unicode="&#xea;" d="M84 526q0 301 122 431t374 130q246 0 361.5 -122.5t115.5 -405.5q0 -33 -2 -73t-6 -78h-687q10 -100 59.5 -147.5t166.5 -47.5q49 0 98 3t100.5 10t108.5 20.5t123 32.5v-213q-119 -41 -231.5 -60.5t-215.5 -19.5q-133 0 -225 31.5t-150.5 98t-85 169t-26.5 241.5z M297 1167l209 260h137l217 -260h-188l-99 131l-96 -131h-180zM360 629h428q-6 117 -50 175t-158 58q-119 0 -164 -58.5t-56 -174.5z" />
<glyph unicode="&#xeb;" d="M84 526q0 301 122 431t374 130q246 0 361.5 -122.5t115.5 -405.5q0 -33 -2 -73t-6 -78h-687q10 -100 59.5 -147.5t166.5 -47.5q49 0 98 3t100.5 10t108.5 20.5t123 32.5v-213q-119 -41 -231.5 -60.5t-215.5 -19.5q-133 0 -225 31.5t-150.5 98t-85 169t-26.5 241.5z M270 1167v228h213v-228h-213zM360 629h428q-6 117 -50 175t-158 58q-119 0 -164 -58.5t-56 -174.5zM688 1167v228h213v-228h-213z" />
<glyph unicode="&#xec;" horiz-adv-x="473" d="M-10 1427h241l127 -260h-153zM96 0v1075h283v-1075h-283z" />
<glyph unicode="&#xed;" horiz-adv-x="473" d="M96 0v1075h283v-1075h-283zM113 1167l127 260h241l-215 -260h-153z" />
<glyph unicode="&#xee;" horiz-adv-x="473" d="M-41 1167l209 260h137l217 -260h-188l-98 131l-97 -131h-180zM96 0v1075h283v-1075h-283z" />
<glyph unicode="&#xef;" horiz-adv-x="516" d="M-31 1167v228h213v-228h-213zM113 0v1075h282v-1075h-282zM334 1167v228h213v-228h-213z" />
<glyph unicode="&#xf0;" horiz-adv-x="1122" d="M61 524q0 131 27 234.5t87.5 176.5t155.5 111.5t232 38.5q49 0 92 -6q-53 84 -135 174l-227 -94l-62 150l164 67q-82 74 -174 133l211 101q104 -59 193 -137l217 92l63 -154l-153 -63q66 -78 118 -164q80 -129 126 -273.5t57 -292.5q2 -23 3 -48t1 -46q0 -123 -26.5 -222 t-85 -169t-153 -107.5t-229.5 -37.5t-230 37.5t-155.5 107.5t-88.5 169t-28 222zM344 524q0 -178 53.5 -249.5t165.5 -71.5q102 0 156.5 71.5t54.5 249.5q0 92 -9 158t-33.5 106.5t-66 59t-102.5 18.5q-113 0 -166 -77.5t-53 -264.5z" />
<glyph unicode="&#xf1;" horiz-adv-x="1198" d="M121 0v1012l276 82v-88q59 27 115 45q111 37 233 36q86 0 149.5 -25.5t103.5 -71.5t59.5 -109.5t19.5 -137.5v-743h-272v743q0 63 -31 90t-94 27t-168 -33q-53 -18 -115 -43v-784h-276zM317 1290q23 72 73 101.5t106 29.5q43 0 76.5 -21.5t62.5 -43.5q20 -14 39.5 -26.5 t54.5 -12.5q25 0 50.5 24.5t35.5 49.5l66 -93q-29 -78 -78 -104.5t-96 -26.5q-35 0 -65 17.5t-58 40.5q-23 18 -45.5 31.5t-55.5 13.5q-37 0 -62.5 -23.5t-39.5 -46.5z" />
<glyph unicode="&#xf2;" horiz-adv-x="1165" d="M84 528q0 129 27.5 233.5t87 176.5t153.5 110.5t230 38.5q135 0 229 -38.5t153.5 -110.5t86 -176.5t26.5 -233.5q0 -125 -26.5 -225t-86 -171t-153.5 -108.5t-229 -37.5q-133 0 -228.5 38.5t-155 109.5t-87 171.5t-27.5 222.5zM350 1427h242l127 -260h-154zM367 528 q0 -176 51 -246.5t164 -70.5q104 0 158.5 70.5t54.5 246.5q0 180 -54.5 257t-158.5 77q-113 0 -164 -76.5t-51 -257.5z" />
<glyph unicode="&#xf3;" horiz-adv-x="1165" d="M84 528q0 129 27.5 233.5t87 176.5t153.5 110.5t230 38.5q135 0 229 -38.5t153.5 -110.5t86 -176.5t26.5 -233.5q0 -125 -26.5 -225t-86 -171t-153.5 -108.5t-229 -37.5q-133 0 -228.5 38.5t-155 109.5t-87 171.5t-27.5 222.5zM367 528q0 -176 51 -246.5t164 -70.5 q104 0 158.5 70.5t54.5 246.5q0 180 -54.5 257t-158.5 77q-113 0 -164 -76.5t-51 -257.5zM453 1167l127 260h241l-215 -260h-153z" />
<glyph unicode="&#xf4;" horiz-adv-x="1165" d="M84 528q0 129 27.5 233.5t87 176.5t153.5 110.5t230 38.5q135 0 229 -38.5t153.5 -110.5t86 -176.5t26.5 -233.5q0 -125 -26.5 -225t-86 -171t-153.5 -108.5t-229 -37.5q-133 0 -228.5 38.5t-155 109.5t-87 171.5t-27.5 222.5zM307 1167l209 260h137l217 -260h-188 l-98 131l-97 -131h-180zM367 528q0 -176 51 -246.5t164 -70.5q104 0 158.5 70.5t54.5 246.5q0 180 -54.5 257t-158.5 77q-113 0 -164 -76.5t-51 -257.5z" />
<glyph unicode="&#xf5;" horiz-adv-x="1165" d="M84 528q0 129 27.5 233.5t87 176.5t153.5 110.5t230 38.5q135 0 229 -38.5t153.5 -110.5t86 -176.5t26.5 -233.5q0 -125 -26.5 -225t-86 -171t-153.5 -108.5t-229 -37.5q-133 0 -228.5 38.5t-155 109.5t-87 171.5t-27.5 222.5zM309 1290q23 72 73 101.5t105 29.5 q43 0 77 -21.5t63 -43.5q20 -14 39.5 -26.5t54.5 -12.5q25 0 50.5 24.5t35.5 49.5l65 -93q-29 -78 -78 -104.5t-96 -26.5q-35 0 -64.5 17.5t-58.5 40.5q-23 18 -45 31.5t-55 13.5q-37 0 -62.5 -23.5t-39.5 -46.5zM367 528q0 -176 51 -246.5t164 -70.5q104 0 158.5 70.5 t54.5 246.5q0 180 -54.5 257t-158.5 77q-113 0 -164 -76.5t-51 -257.5z" />
<glyph unicode="&#xf6;" horiz-adv-x="1165" d="M84 528q0 129 27.5 233.5t87 176.5t153.5 110.5t230 38.5q135 0 229 -38.5t153.5 -110.5t86 -176.5t26.5 -233.5q0 -125 -26.5 -225t-86 -171t-153.5 -108.5t-229 -37.5q-133 0 -228.5 38.5t-155 109.5t-87 171.5t-27.5 222.5zM270 1167v228h213v-228h-213zM367 528 q0 -176 51 -246.5t164 -70.5q104 0 158.5 70.5t54.5 246.5q0 180 -54.5 257t-158.5 77q-113 0 -164 -76.5t-51 -257.5zM688 1167v228h213v-228h-213z" />
<glyph unicode="&#xf7;" horiz-adv-x="1085" d="M78 651v209h928v-209h-928zM412 260v252h258v-252h-258zM412 1014v252h258v-252h-258z" />
<glyph unicode="&#xf8;" horiz-adv-x="1187" d="M-10 -72l196 248q-35 57 -55 129q-27 100 -27 223q0 129 28 233.5t87.5 176.5t153.5 110.5t229 38.5t229 -38q20 -8 39 -19l115 144h209l-199 -250q51 -68 76 -162q27 -104 27 -234q0 -125 -27 -225t-86 -171t-153.5 -108.5t-229.5 -37.5q-133 0 -229 39q-37 14 -70 34 l-104 -131h-209zM387 528q0 -53 4 -98l322 401q-45 31 -111 31q-113 0 -164 -76.5t-51 -257.5zM461 256q51 -45 141 -45q104 0 158.5 70.5t54.5 246.5q0 90 -14 154z" />
<glyph unicode="&#xf9;" horiz-adv-x="1198" d="M127 328v686l274 82v-783q0 -53 32 -76.5t95 -23.5q66 0 131.5 16.5t133.5 38.5v807h272v-1075h-272v66q-78 -37 -155 -58.5t-149 -21.5q-74 0 -140 18.5t-115.5 59t-78 105t-28.5 159.5zM350 1427h242l127 -260h-154z" />
<glyph unicode="&#xfa;" horiz-adv-x="1198" d="M127 328v686l274 82v-783q0 -53 32 -76.5t95 -23.5q66 0 131.5 16.5t133.5 38.5v807h272v-1075h-272v66q-78 -37 -155 -58.5t-149 -21.5q-74 0 -140 18.5t-115.5 59t-78 105t-28.5 159.5zM453 1167l127 260h241l-215 -260h-153z" />
<glyph unicode="&#xfb;" horiz-adv-x="1198" d="M127 328v686l274 82v-783q0 -53 32 -76.5t95 -23.5q66 0 131.5 16.5t133.5 38.5v807h272v-1075h-272v66q-78 -37 -155 -58.5t-149 -21.5q-74 0 -140 18.5t-115.5 59t-78 105t-28.5 159.5zM334 1167l209 260h137l217 -260h-188l-99 131l-96 -131h-180z" />
<glyph unicode="&#xfc;" horiz-adv-x="1198" d="M127 328v686l274 82v-783q0 -53 32 -76.5t95 -23.5q66 0 131.5 16.5t133.5 38.5v807h272v-1075h-272v66q-78 -37 -155 -58.5t-149 -21.5q-74 0 -140 18.5t-115.5 59t-78 105t-28.5 159.5zM297 1167v228h213v-228h-213zM715 1167v228h213v-228h-213z" />
<glyph unicode="&#xfd;" horiz-adv-x="1198" d="M129 365v649l274 82v-746q0 -53 32 -74.5t95 -21.5q70 0 164 25q49 14 101 28v768h272v-1110q0 -88 -34 -152.5t-94 -107.5t-143 -63.5t-182 -20.5q-176 0 -383 47v217q39 -10 82 -17t82 -11t72 -7.5t53 -3.5q66 0 117 5.5t86 20.5t53.5 46t18.5 84v88q-63 -23 -121 -39 q-96 -27 -182 -26q-74 0 -140.5 18t-116 58t-78 105.5t-28.5 158.5zM453 1167l127 260h241l-215 -260h-153z" />
<glyph unicode="&#xfe;" horiz-adv-x="1146" d="M131 -401v1861l275 82v-512q111 55 233 57q129 0 215 -37.5t139.5 -108.5t76 -170t22.5 -222t-22.5 -226.5t-76 -178t-139.5 -116.5t-215 -42q-55 0 -111.5 8t-121.5 29v-342zM406 242q63 -18 113 -24.5t97 -6.5q59 0 96.5 27.5t59 74.5t29.5 107.5t8 128.5t-7 125 t-27.5 98t-58.5 64.5t-98 23.5q-53 0 -107 -14.5t-105 -36.5v-567z" />
<glyph unicode="&#xff;" horiz-adv-x="1198" d="M129 365v649l274 82v-746q0 -53 32 -74.5t95 -21.5q70 0 164 25q49 14 101 28v768h272v-1110q0 -88 -34 -152.5t-94 -107.5t-143 -63.5t-182 -20.5q-176 0 -383 47v217q39 -10 82 -17t82 -11t72 -7.5t53 -3.5q66 0 117 5.5t86 20.5t53.5 46t18.5 84v88q-63 -23 -121 -39 q-96 -27 -182 -26q-74 0 -140.5 18t-116 58t-78 105.5t-28.5 158.5zM297 1167v228h213v-228h-213zM715 1167v228h213v-228h-213z" />
<glyph unicode="&#x152;" horiz-adv-x="1761" d="M92 735q0 184 31 325.5t101.5 236t187 142.5t286.5 48h990v-221h-598v-402h581l-86 -225h-495v-418h598v-221h-990q-170 0 -285.5 45t-186 137t-102.5 230.5t-32 322.5zM369 735q0 -131 16 -228t53.5 -160.5t98.5 -96.5q63 -31 155 -31h121v1049h-121 q-184 0 -253.5 -134.5t-69.5 -398.5z" />
<glyph unicode="&#x153;" horiz-adv-x="1841" d="M53 528q0 129 28 233.5t87 176.5t153.5 110.5t229.5 38.5t229 -49t148 -125q57 80 156.5 127t234.5 47q246 0 361.5 -122.5t115.5 -405.5q0 -33 -2 -73t-6 -78h-694q10 -100 63 -147.5t170 -47.5q49 0 98.5 3t100.5 10t108.5 20.5t122.5 32.5v-213q-119 -41 -231.5 -60.5 t-214.5 -19.5q-139 0 -236.5 45t-150.5 121q-53 -72 -146.5 -119t-226.5 -47t-228.5 38.5t-154.5 109.5t-87 171.5t-28 222.5zM336 528q0 -176 51 -246.5t164 -70.5q104 0 162.5 70.5t58.5 246.5q0 180 -58.5 257t-162.5 77q-113 0 -164 -76.5t-51 -257.5zM1092 629h436 q-6 117 -50 175t-159 58q-119 0 -168 -58.5t-59 -174.5z" />
<glyph unicode="&#x178;" horiz-adv-x="1314" d="M-6 1489h311l352 -576l353 576h311l-520 -840v-649h-285v651zM352 1581v227h219v-227h-219zM764 1581v227h219v-227h-219z" />
<glyph unicode="&#x2dc;" horiz-adv-x="1024" d="M209 1686q27 90 83 121.5t116 31.5q51 0 86.5 -23.5t66.5 -46.5q14 -10 33.5 -22t42.5 -12q29 0 48.5 25.5t33.5 56.5l88 -103q-16 -47 -39 -77.5t-48.5 -48t-52 -23.5t-53.5 -6q-39 0 -73.5 22.5t-63.5 44.5q-27 20 -43 26.5t-45 6.5q-27 0 -53.5 -24.5t-42.5 -51.5z " />
<glyph unicode="&#x2000;" horiz-adv-x="935" />
<glyph unicode="&#x2001;" horiz-adv-x="1870" />
<glyph unicode="&#x2002;" horiz-adv-x="935" />
<glyph unicode="&#x2003;" horiz-adv-x="1870" />
<glyph unicode="&#x2004;" horiz-adv-x="623" />
<glyph unicode="&#x2005;" horiz-adv-x="467" />
<glyph unicode="&#x2006;" horiz-adv-x="311" />
<glyph unicode="&#x2007;" horiz-adv-x="311" />
<glyph unicode="&#x2008;" horiz-adv-x="233" />
<glyph unicode="&#x2009;" horiz-adv-x="374" />
<glyph unicode="&#x200a;" horiz-adv-x="103" />
<glyph unicode="&#x2010;" horiz-adv-x="1085" d="M133 641v229h817v-229h-817z" />
<glyph unicode="&#x2011;" horiz-adv-x="1085" d="M133 641v229h817v-229h-817z" />
<glyph unicode="&#x2012;" horiz-adv-x="1085" d="M133 641v229h817v-229h-817z" />
<glyph unicode="&#x2013;" horiz-adv-x="1292" d="M133 641v229h1024v-229h-1024z" />
<glyph unicode="&#x2014;" horiz-adv-x="1769" d="M6 643v223h1757v-223h-1757z" />
<glyph unicode="&#x2018;" horiz-adv-x="450" d="M8 1124l185 478h231l-119 -478h-297z" />
<glyph unicode="&#x2019;" horiz-adv-x="450" d="M27 1124l118 478h297l-184 -478h-231z" />
<glyph unicode="&#x201c;" horiz-adv-x="778" d="M8 1024l185 477h231l-119 -477h-297zM352 1024l185 477h231l-119 -477h-297z" />
<glyph unicode="&#x201d;" horiz-adv-x="778" d="M8 1024l119 477h297l-184 -477h-232zM352 1024l119 477h297l-184 -477h-232z" />
<glyph unicode="&#x2022;" horiz-adv-x="1884" d="M717 625q0 47 18.5 88t49 71.5t71.5 49t88 18.5t88 -18.5t72 -49t49 -71.5t18 -88t-18 -88t-49 -72t-72 -48.5t-88 -17.5t-88 17.5t-71.5 48.5t-49 72t-18.5 88z" />
<glyph unicode="&#x2026;" horiz-adv-x="1884" d="M180 524v281h279v-281h-279zM813 524v281h279v-281h-279zM1413 524v281h279v-281h-279z" />
<glyph unicode="&#x202f;" horiz-adv-x="374" />
<glyph unicode="&#x2039;" horiz-adv-x="1884" d="M997 618l701 889l102 -77l-643 -812l643 -811l-100 -77z" />
<glyph unicode="&#x203a;" horiz-adv-x="1884" d="M90 -193l643 811l-643 812l103 77l700 -889l-703 -888z" />
<glyph unicode="&#x205f;" horiz-adv-x="467" />
<glyph unicode="&#x20ac;" horiz-adv-x="1208" d="M0 559v117h129v72v67h-129v117h137q8 68 23 129q33 141 103.5 239.5t183 150.5t272.5 52q119 0 224.5 -17.5t225.5 -55.5v-216q-66 14 -119 24.5t-102 17t-96 8.5t-100 2q-180 0 -258 -136q-47 -80 -66 -198h494v-117h-506v-67v-72h506v-117h-494q4 -14 6 -27 q18 -96 59.5 -163.5t106 -104.5t154.5 -37q49 0 95 3t95 10.5t103.5 17.5t121.5 27v-219q-117 -35 -230.5 -55.5t-219.5 -20.5q-160 0 -272.5 56t-183 157.5t-103.5 238.5q-12 55 -21 117h-139z" />
<glyph unicode="&#x2122;" horiz-adv-x="1843" d="M51 1421v199h694l-71 -199h-174v-567h-230v567h-219zM788 854v766h297l179 -485l178 485h297v-766h-207v465l-160 -430h-217l-160 430v-465h-207z" />
<glyph unicode="&#xe000;" horiz-adv-x="1075" d="M0 0v1075h1075v-1075h-1075z" />
</font>
</defs>
</svg>
