<?xml version="1.0" encoding="UTF-8" standalone="no"?>
<!DOCTYPE svg  PUBLIC '-//W3C//DTD SVG 1.1//EN'  'http://www.w3.org/Graphics/SVG/1.1/DTD/svg11.dtd'>
<svg xmlns="http://www.w3.org/2000/svg">
<defs>
<font id="ModernH-MediumA" horiz-adv-x="520">
<font-face underline-position="-100" font-weight="500" descent="-200" panose-1="2 0 6 3 0 0 0 0 0 0" units-per-em="1000" unicode-range="U+0021-00FE" bbox="-53 -239 955 956" x-height="520" underline-thickness="50" font-family="ModernH" ascent="800" cap-height="716"/>
<missing-glyph horiz-adv-x="1000"/>
<glyph glyph-name=".notdef" horiz-adv-x="1000"/>
<glyph glyph-name=".null" horiz-adv-x="0"/>
<glyph glyph-name="nonmarkingreturn" horiz-adv-x="333"/>
<glyph glyph-name="Korea1.2" horiz-adv-x="330" unicode="!" d="M218 84v-114h-109v114h109zM206 202h-83l-17 538h118z"/>
<glyph glyph-name="Korea1.3" horiz-adv-x="440" unicode='&quot;' d="M252 751h102q-2 -48 -7 -136t-7 -135h-31q-21 0 -32.5 12.5t-12.5 30.5q-2 40 -6 114t-6 114zM72 751h103q-2 -47 -7 -135t-7 -136h-32q-20 0 -31.5 12.5t-12.5 30.5q-8 128 -13 228z"/>
<glyph glyph-name="Korea1.4" horiz-adv-x="697" unicode="#" d="M281 451l-31 -195h166l32 195h-167zM28 178v78h124l32 195h-102v78h114l33 201h98l-33 -201h166l33 201h98l-33 -201h110v-43q0 -20 -8.5 -27.5t-29.5 -7.5h-85l-31 -195h100v-43q0 -20 -8.5 -27.5t-29.5 -7.5h-75l-29 -181q-6 -41 -42 -41h-62l36 222h-167l-29 -181 q-6 -41 -42 -41h-62l36 222h-112z"/>
<glyph glyph-name="Korea1.5" horiz-adv-x="530" unicode="$" d="M140 519q0 -38 18 -60.5t59 -43.5v188q-77 -13 -77 -84zM395 174q0 32 -16.5 55.5t-64.5 47.5v-194q81 17 81 91zM217 760h97v-74h148v-33q0 -29 -13 -37.5t-47 -8.5h-88v-237l32 -15q83 -39 114.5 -79t31.5 -101q0 -151 -178 -172v-76h-57q-23 0 -31.5 10t-8.5 33v30 h-177v33q0 24 13.5 34.5t47.5 10.5h116v243l-45 20q-130 57 -130 178q0 148 175 164v77z"/>
<glyph glyph-name="Korea1.6" horiz-adv-x="849" unicode="%" d="M35 535q0 81 42.5 125.5t122.5 44.5q78 0 121.5 -45t43.5 -125q0 -79 -43.5 -124t-121.5 -45q-80 0 -122.5 43.5t-42.5 125.5zM132 535q0 -91 68 -91q39 0 53 24t14 67t-14 67.5t-53 24.5q-68 0 -68 -92zM545 716h103l-331 -715q-9 -19 -20.5 -25.5t-31.5 -6.5h-65z M481 148q0 81 42.5 125.5t122.5 44.5q78 0 121.5 -45t43.5 -125t-43 -124.5t-122 -44.5q-80 0 -122.5 43.5t-42.5 125.5zM578 148q0 -91 68 -91q39 0 53 24t14 67t-14 67.5t-53 24.5q-68 0 -68 -92z"/>
<glyph glyph-name="Korea1.7" horiz-adv-x="703" unicode="&amp;" d="M684 -30h-114l-56 61q-91 -75 -227 -75q-126 0 -188 57t-62 141q0 107 109 183l65 45l-45 54q-22 27 -32 41t-21.5 41t-11.5 54q0 71 50.5 114.5t150.5 43.5q86 0 143 -45t57 -116q0 -87 -81 -147l-81 -58l165 -190q26 49 26 135l88 -10q-3 -117 -52 -195zM456 97 l-189 220l-66 -47q-36 -27 -51 -53.5t-15 -63.5q0 -55 42 -86.5t110 -31.5q107 0 169 62zM286 430l70 48q48 33 48 91q0 38 -27.5 60t-74.5 22q-103 0 -103 -80q0 -35 32 -74z"/>
<glyph glyph-name="Korea1.8" horiz-adv-x="288" unicode="&apos;" d="M94 751h102q-2 -47 -7 -135t-7 -136h-30q-21 0 -32.5 12.5t-12.5 30.5q-5 100 -13 228z"/>
<glyph glyph-name="Korea1.9" horiz-adv-x="380" unicode="(" d="M188 198q8 -62 39.5 -117.5t79.5 -83.5l-51 -58q-69 33 -111.5 103.5t-51.5 154.5q-8 60 -8 155t8 155q11 87 49.5 149t113.5 107l51 -55q-99 -58 -119 -202q-8 -57 -8 -154q0 -95 8 -154z"/>
<glyph glyph-name="Korea1.10" horiz-adv-x="384" unicode=")" d="M193 504q-8 62 -39.5 117.5t-79.5 83.5l51 58q69 -33 111 -103t52 -155q8 -72 8 -155q0 -95 -8 -155q-11 -87 -49.5 -149t-113.5 -107l-51 55q99 58 119 202q8 57 8 154q0 95 -8 154z"/>
<glyph glyph-name="Korea1.11" horiz-adv-x="572" unicode="*" d="M468 363l-138 94l15 -162h-101l15 160l-139 -91l-57 87l163 65l-161 78l54 88l139 -104l-15 173h99l-12 -165l139 98l49 -90l-156 -71l156 -72z"/>
<glyph glyph-name="Korea1.12" horiz-adv-x="600" unicode="+" d="M349 578v-198h197v-79h-197v-201h-99v201h-195v79h195v198h99z"/>
<glyph glyph-name="Korea1.13" horiz-adv-x="256" unicode="," d="M123 -30h-57v114h123v-114q0 -52 -24.5 -90.5t-68.5 -56.5q-4 6 -13.5 18t-13.5 18q54 29 54 83v28z"/>
<glyph glyph-name="Korea1.14" horiz-adv-x="553" unicode="-" d="M66 301v79h422v-79h-422z"/>
<glyph glyph-name="Korea1.15" horiz-adv-x="256" unicode="." d="M182 84v-114h-109v114h109z"/>
<glyph glyph-name="Korea1.16" horiz-adv-x="490" unicode="/" d="M341 751h99l-285 -803h-98z"/>
<glyph glyph-name="Korea1.17" d="M259 730q57 0 97.5 -16t66.5 -45t40 -78.5t19.5 -106.5t5.5 -139q0 -213 -49.5 -301t-179.5 -88t-178.5 91.5t-48.5 297.5q0 79 5.5 136t20.5 106.5t40 79t65 46.5t96 17zM259 35q31 0 53 9t36.5 30t23 44t12.5 63t5 74t1 90q0 54 -1 87t-5 73t-12.5 63t-23 44t-36.5 30 t-53 9q-29 0 -50.5 -9t-35.5 -29.5t-22.5 -44t-13 -61.5t-6 -73.5t-1.5 -88.5t1.5 -89.5t6 -75t13.5 -62.5t23 -44.5t35 -29.5t50 -9z" unicode="0"/>
<glyph glyph-name="Korea1.18" d="M335 679v-709h-46q-28 0 -40 14t-12 44v609h-121v79h180q39 0 39 -37z" unicode="1"/>
<glyph glyph-name="Korea1.19" d="M422 -30h-310q-37 0 -52.5 12.5t-15.5 48.5v92q0 82 67 130l193 136q69 49 69 137q0 56 -38 90.5t-109 34.5q-74 0 -168 -28v80q81 27 168 27q119 0 182 -51.5t63 -150.5q0 -67 -25.5 -114t-81.5 -87l-188 -133q-34 -24 -34 -77v-68h334v-30q0 -49 -54 -49z" unicode="2"/>
<glyph glyph-name="Korea1.20" d="M226 730q100 0 167 -45.5t67 -140.5v-5q-2 -132 -94 -177q57 -17 84.5 -65.5t27.5 -110.5q0 -119 -69 -174.5t-189 -55.5h-10q-70 0 -165 16v34q0 39 39 39q9 0 13 -1q55 -7 114 -7q82 0 125.5 31t43.5 112q0 77 -34.5 106.5t-110.5 31.5h-111q-17 0 -23.5 5.5t-6.5 21.5 v52h141q70 0 98.5 33.5t28.5 110.5q0 61 -43 86q-39 24 -88 24h-6q-31 0 -78 -6q-18 -2 -45.5 -8t-36.5 -7v78q81 22 161 22z" unicode="3"/>
<glyph glyph-name="Korea1.21" d="M346 622l-238 -438h238v438zM462 106h-22v-136h-45q-27 0 -38 13.5t-11 44.5v78h-330v81l262 484q12 24 28 34.5t46 10.5h88v-532h64v-37q0 -41 -42 -41z" unicode="4"/>
<glyph glyph-name="Korea1.22" d="M238 342h-176v374h390v-38q0 -41 -46 -41h-246v-216h84q123 0 174 -55.5t51 -161.5q0 -248 -250 -248q-74 0 -166 16v35q0 37 43 37q8 0 11 -1q71 -7 105 -8h8q151 0 151 169q0 62 -27.5 100t-105.5 38z" unicode="5"/>
<glyph glyph-name="Korea1.23" d="M384 171v64q0 70 -29 99.5t-89 29.5q-66 0 -99 -29t-33 -96v-69q0 -71 29 -101.5t99 -30.5q122 0 122 133zM446 707v-41q0 -23 -11 -29.5t-30 -6.5q-68 5 -111 5q-44 0 -75.5 -13.5t-47.5 -32t-25 -46.5t-10.5 -47.5t-1.5 -44.5v-53q48 48 134 48q105 0 158 -51.5 t53 -146.5v-90q0 -197 -217 -202h-9q-102 0 -157.5 52t-55.5 150v282q0 275 253 275q90 0 153 -8z" unicode="6"/>
<glyph glyph-name="Korea1.24" d="M478 686v-40q0 -19 -12 -52l-223 -591q-14 -33 -45 -33h-63l252 667h-344v79h400q35 0 35 -30z" unicode="7"/>
<glyph glyph-name="Korea1.25" d="M261 -44q-111 0 -176 53.5t-65 159.5q0 149 96 202q-79 49 -79 156q0 104 61 153.5t161 49.5t162.5 -50t62.5 -152q0 -54 -20.5 -97t-60.5 -62q54 -25 76 -73t22 -121q0 -102 -60 -160.5t-180 -58.5zM259 329q-75 0 -108 -38t-33 -112q0 -69 37 -106.5t106 -37.5 q74 0 108 41.5t34 100.5q0 77 -32 114.5t-112 37.5zM258 402q128 0 128 126q0 123 -126 123q-125 0 -125 -123q0 -126 123 -126z" unicode="8"/>
<glyph glyph-name="Korea1.26" d="M135 515v-65q0 -70 29 -99.5t89 -29.5q66 0 99 29t33 96v70q0 71 -29 101.5t-99 30.5q-122 0 -122 -133zM73 -22v41q0 36 36 36h5q68 -5 111 -5q44 0 75.5 13.5t47.5 32t25 46.5t10.5 47.5t1.5 44.5v53q-48 -48 -134 -48q-105 0 -158 51.5t-53 146.5v91q0 197 217 202h9 q102 0 157.5 -52t55.5 -150v-283q0 -275 -253 -275q-90 0 -153 8z" unicode="9"/>
<glyph glyph-name="Korea1.27" horiz-adv-x="256" unicode=":" d="M182 598v-114h-109v114h109zM182 204v-114h-109v114h109z"/>
<glyph glyph-name="Korea1.28" horiz-adv-x="256" unicode=";" d="M182 598v-114h-109v114h109zM80 204h106q-64 -180 -90 -255h-30q-23 0 -23 28q0 6 2 20q6 34 17.5 103t17.5 104z"/>
<glyph glyph-name="Korea1.29" horiz-adv-x="495" unicode="&lt;" d="M417 81l-68 -61q-41 45 -138.5 154.5t-149.5 166.5q192 212 288 317q11 -8 33.5 -28t35.5 -30l-237 -259q39 -42 118 -130t118 -130z"/>
<glyph glyph-name="Korea1.30" horiz-adv-x="580" unicode="=" d="M79 426v79h422v-79h-422zM79 202v79h422v-79h-422z"/>
<glyph glyph-name="Korea1.31" horiz-adv-x="476" unicode="&gt;" d="M160 21l-69 60l236 260q-39 43 -118.5 130t-118.5 130q13 10 35 29t35 28q34 -38 133 -147.5t153 -169.5q-49 -54 -144 -161t-142 -159z"/>
<glyph glyph-name="Korea1.32" horiz-adv-x="538" unicode="?" d="M286 84v-114h-109v114h109zM281 179h-98v58q0 48 9 76t33 44l91 62q44 30 59.5 60.5t15.5 70.5q0 53 -38.5 82t-109.5 29q-95 0 -195 -30l-5 78q97 31 198 31q112 0 180 -49.5t68 -136.5q0 -114 -94 -182l-86 -61q-19 -14 -23.5 -29.5t-4.5 -47.5v-55z"/>
<glyph glyph-name="Korea1.33" horiz-adv-x="916" unicode="@" d="M443 343q-43 0 -62 -12.5t-19 -44.5v-39q0 -32 19 -45.5t62 -13.5h105v149q-52 6 -105 6zM476 763q196 0 299 -101.5t103 -272.5q0 -118 -68.5 -199t-177.5 -81h-208q-72 0 -116.5 36t-44.5 94v50q0 65 41.5 98.5t117.5 33.5h7q55 0 119 -6v38q0 28 -13.5 41t-49.5 13 h-138q-28 0 -37.5 9t-9.5 31v39h199q78 0 112.5 -36.5t34.5 -106.5v-250q57 1 95 62t38 133q0 138 -73.5 217t-232.5 79q-164 0 -251.5 -95t-87.5 -245q0 -151 81.5 -239t253.5 -88q83 0 184 31l18 -48q3 -6 3 -12q0 -14 -17 -19q-102 -31 -203 -31q-204 0 -311 111 t-107 297q0 188 114 302.5t326 114.5z"/>
<glyph glyph-name="Korea1.34" horiz-adv-x="656" unicode="A" d="M328 622l-114 -352h228zM540 -30l-87 265q-10 -19 -34 -32.5t-56 -13.5h-175l-70 -219h-101l250 746h85q35 0 48 -36l240 -710h-100z"/>
<glyph glyph-name="Korea1.35" horiz-adv-x="636" unicode="B" d="M362 316h-192v-267h191q59 0 90.5 31t31.5 78v47q0 49 -29.5 80t-91.5 31zM363 637h-193v-242h193q55 0 77.5 30.5t22.5 73.5v39q0 43 -26 71t-74 28zM73 716h289q98 0 148 -47.5t50 -125.5v-45q0 -91 -69 -140q44 -19 67 -57t23 -83v-65q0 -92 -64 -137.5t-155 -45.5 h-289v746z"/>
<glyph glyph-name="Korea1.36" horiz-adv-x="573" unicode="C" d="M537 49v-29q0 -50 -66 -50h-210q-88 0 -144 53t-56 139v365q0 88 59 138.5t164 50.5h243v-28q0 -24 -13.5 -37.5t-51.5 -13.5h-175q-128 0 -128 -123v-345q0 -51 27.5 -85.5t78.5 -34.5h272z"/>
<glyph glyph-name="Korea1.37" horiz-adv-x="657" unicode="D" d="M353 637h-182v-588h182q66 0 105 36.5t39 91.5v327q0 61 -39.5 97t-104.5 36zM74 716h279q118 0 179.5 -59t61.5 -153v-327q0 -93 -61 -150t-180 -57h-279v746z"/>
<glyph glyph-name="Korea1.38" horiz-adv-x="592" unicode="E" d="M494 -30h-420v746h462v-25q0 -28 -11 -41t-44 -13h-309v-232h332v-28q0 -24 -11 -37.5t-43 -13.5h-278v-277h376v-28q0 -24 -11.5 -37.5t-42.5 -13.5z"/>
<glyph glyph-name="Korea1.39" horiz-adv-x="571" unicode="F" d="M455 326h-283v-356h-44q-29 0 -41.5 12.5t-12.5 43.5v690h474v-27q0 -52 -59 -52h-317v-232h343v-28q0 -51 -60 -51z"/>
<glyph glyph-name="Korea1.40" horiz-adv-x="664" unicode="G" d="M281 716h301v-26q0 -28 -13.5 -40.5t-48.5 -12.5h-239q-51 0 -83.5 -30.5t-32.5 -83.5v-358q0 -50 30 -83t86 -33h122q47 0 72.5 30.5t25.5 76.5v134q0 12 -4.5 16t-14.5 4h-98q-32 0 -45.5 9.5t-13.5 35.5v34h199q41 0 58 -18.5t17 -58.5v-156q0 -91 -53 -138.5 t-142 -47.5h-123q-97 0 -155.5 50.5t-58.5 145.5v357q0 90 60.5 141.5t153.5 51.5z"/>
<glyph glyph-name="Korea1.41" horiz-adv-x="672" unicode="H" d="M497 716h98v-746h-43q-29 0 -42 12.5t-13 41.5v346q-28 -44 -88 -44h-237v-356h-44q-29 0 -41.5 12.5t-12.5 41.5v692h98v-311h325v311z"/>
<glyph glyph-name="Korea1.42" horiz-adv-x="263" unicode="I" d="M84 716h99v-746h-45q-29 0 -41.5 12.5t-12.5 41.5v692z"/>
<glyph glyph-name="Korea1.43" horiz-adv-x="413" unicode="J" d="M71 49h63q55 0 80 25t25 85v557h99v-557q0 -96 -49.5 -142.5t-154.5 -46.5h-121v31q0 27 13 37.5t45 10.5z"/>
<glyph glyph-name="Korea1.44" horiz-adv-x="619" unicode="K" d="M74 716h98v-746h-45q-28 0 -40.5 13t-12.5 42v691zM477 -4l-271 359l276 361h119l-276 -360l290 -386h-80q-39 0 -58 26z"/>
<glyph glyph-name="Korea1.45" horiz-adv-x="538" unicode="L" d="M172 716v-667h348v-28q0 -28 -11.5 -39.5t-40.5 -11.5h-394v746h98z"/>
<glyph glyph-name="Korea1.46" horiz-adv-x="883" unicode="M" d="M804 716v-746h-44q-29 0 -41.5 12.5t-12.5 40.5v507l-188 -339q-28 -52 -78 -52q-48 0 -77 51l-188 340v-560h-44q-54 0 -54 48v698h102l249 -463q6 -13 12 -13t13 13l249 463h102z"/>
<glyph glyph-name="Korea1.47" horiz-adv-x="669" unicode="N" d="M74 24v692h309q111 0 161 -41.5t50 -153.5v-551h-43q-29 0 -42 12.5t-13 41.5v498q0 66 -24.5 90.5t-88.5 24.5h-211v-667h-44q-29 0 -41.5 12.5t-12.5 41.5z"/>
<glyph glyph-name="Korea1.48" horiz-adv-x="695" unicode="O" d="M536 273v141q-2 232 -190 232q-189 0 -189 -233v-141q0 -230 189 -232q190 0 190 233zM346 730q145 0 216.5 -81.5t71.5 -235.5v-141q0 -154 -71.5 -235t-216.5 -81q-287 0 -287 317v140q0 317 287 317z"/>
<glyph glyph-name="Korea1.49" horiz-adv-x="617" unicode="P" d="M345 635h-174v-304h174q117 0 117 104v97q0 103 -117 103zM345 250h-174v-280h-43q-29 0 -42 12.5t-13 41.5v692h272q105 0 160 -43.5t55 -140.5v-97q0 -26 -3 -46.5t-15.5 -48t-34.5 -46t-63.5 -31.5t-98.5 -13z"/>
<glyph glyph-name="Korea1.50" horiz-adv-x="696" unicode="Q" d="M537 273v141v16q0 216 -188 216h-2h-2q-187 0 -187 -217v-16v-141q0 -125 43 -178.5t146 -53.5q110 0 150 56t40 177zM347 730q145 0 216.5 -81.5t71.5 -235.5v-141q0 -175 -91 -254l102 -133h-64q-42 0 -65 28l-50 62q-55 -19 -120 -19q-287 0 -287 317v140 q0 317 287 317z"/>
<glyph glyph-name="Korea1.51" horiz-adv-x="630" unicode="R" d="M367 635h-196v-261h196q109 0 109 105v56q0 48 -27.5 74t-81.5 26zM348 293h-177v-323h-45q-28 0 -40.5 12.5t-12.5 41.5v692h294q102 0 154.5 -48t52.5 -123v-75q0 -58 -30.5 -102.5t-96.5 -63.5l155 -334h-106z"/>
<glyph glyph-name="Korea1.52" horiz-adv-x="569" unicode="S" d="M275 -30h-235v31q0 25 13 36.5t46 11.5h173q153 0 153 111q0 40 -26 69t-88 57l-129 58q-134 61 -134 190q0 84 58 133t174 49h219v-33q0 -27 -14 -36.5t-47 -9.5h-158q-133 0 -133 -103q0 -42 22.5 -68t72.5 -50l123 -56q90 -42 124.5 -86.5t34.5 -112.5q0 -44 -15 -78 t-38.5 -55t-57 -34.5t-67 -18.5t-71.5 -5z"/>
<glyph glyph-name="Korea1.53" horiz-adv-x="596" unicode="T" d="M250 24v613h-232v79h563v-27q0 -29 -11 -40.5t-46 -11.5h-176v-667h-44q-28 0 -41 12.5t-13 41.5z"/>
<glyph glyph-name="Korea1.54" horiz-adv-x="676" unicode="U" d="M595 716v-746h-309q-111 0 -161 41.5t-50 153.5v551h98v-552q0 -66 24.5 -90.5t88.5 -24.5h211v667h98z"/>
<glyph glyph-name="Korea1.55" horiz-adv-x="645" unicode="V" d="M114 716l208 -654l208 654h102l-249 -746h-79q-42 0 -54 37l-237 709h101z"/>
<glyph glyph-name="Korea1.56" horiz-adv-x="908" unicode="W" d="M802 716h98q-30 -126 -87.5 -373t-87.5 -373h-69q-57 0 -74 65l-125 468q-100 -366 -142 -533h-64q-35 0 -51.5 14.5t-25.5 48.5q-29 126 -83.5 358t-76.5 325h98l143 -640q53 188 152 575h100l152 -575z"/>
<glyph glyph-name="Korea1.57" horiz-adv-x="651" unicode="X" d="M130 -30h-112l250 374l-246 372h108l192 -288l192 288h110l-245 -372l249 -374h-112l-194 288z"/>
<glyph glyph-name="Korea1.58" horiz-adv-x="664" unicode="Y" d="M377 266v-296h-43q-29 0 -42 12.5t-13 41.5v242l-263 450h106l208 -360l209 360h107z"/>
<glyph glyph-name="Korea1.59" horiz-adv-x="618" unicode="Z" d="M45 716h518v-80l-423 -587h440v-50q0 -29 -33 -29h-514v84l421 583h-409v79z"/>
<glyph glyph-name="Korea1.60" horiz-adv-x="440" unicode="[" d="M367 3v-79h-234v866h234v-79h-136v-708h136z"/>
<glyph glyph-name="Korea1.61" horiz-adv-x="920" unicode="\" d="M721 331h-128l69 -267zM327 331h-128l59 -267q36 136 69 267zM433 410h55l-28 106q-18 -70 -27 -106zM738 410l67 306h98l-72 -306h71v-79h-89q-56 -240 -85 -361h-69q-58 0 -74 65l-77 296h-95q-80 -303 -95 -361h-64q-35 0 -51.5 15t-25.5 48q-46 198 -70 298h-91v79 h73q-36 154 -72 306h98l67 -306h166q8 32 29 114t33 127h100l62 -241h166z"/>
<glyph glyph-name="Korea1.62" horiz-adv-x="440" unicode="]" d="M79 -76v79h135v708h-135v79h233v-866h-233z"/>
<glyph glyph-name="Korea1.63" horiz-adv-x="606" unicode="^" d="M93 579l164 237h95l163 -237h-106l-105 160l-103 -160h-108z"/>
<glyph glyph-name="Korea1.64" horiz-adv-x="607" unicode="_" d="M103 -128v79h405v-79h-405z"/>
<glyph glyph-name="Korea1.65" horiz-adv-x="316" unicode="`" d="M62 791l95 45q17 -40 51.5 -122.5t53.5 -126.5l-28 -13q-10 -5 -21 -5q-23 0 -38 25z"/>
<glyph glyph-name="Korea1.66" horiz-adv-x="537" unicode="a" d="M237 252q-44 0 -64 -18t-20 -60v-53q0 -39 25 -55.5t59 -16.5h137v193q-74 10 -137 10zM472 370v-400h-236q-85 0 -133 37.5t-48 108.5v62q0 157 171 157h10q70 -1 138 -10v45q0 71 -80 71h-135q-38 0 -51 12t-13 35v32h199q178 0 178 -150z"/>
<glyph glyph-name="Korea1.67" horiz-adv-x="549" unicode="b" d="M173 441v-392h112q50 0 78.5 27t28.5 80v178q0 53 -28.5 80t-77.5 27h-113zM75 721h98v-201h112q100 0 152.5 -44.5t52.5 -131.5v-198q0 -176 -205 -176h-210v751z"/>
<glyph glyph-name="Korea1.68" horiz-adv-x="498" unicode="c" d="M266 49h191v-29q0 -24 -13 -37t-51 -13h-127q-91 0 -147.5 50t-56.5 134v180q0 84 56.5 135t147.5 51h187v-27q0 -25 -12 -38.5t-49 -13.5h-126q-51 0 -78.5 -27.5t-27.5 -79.5v-179q0 -48 28 -77t78 -29z"/>
<glyph glyph-name="Korea1.69" horiz-adv-x="546" unicode="d" d="M375 49v392h-113q-49 0 -77.5 -27t-28.5 -80v-178q0 -53 28.5 -80t78.5 -27h112zM375 721h98v-751h-210q-205 0 -205 176v198q0 87 52.5 131.5t152.5 44.5h112v201z"/>
<glyph glyph-name="Korea1.70" horiz-adv-x="543" unicode="e" d="M153 357v-73h218q11 0 14.5 4t3.5 16v53q0 46 -31 72t-89 26q-53 0 -84.5 -26.5t-31.5 -71.5zM246 49h221v-32q0 -24 -12 -35.5t-51 -11.5h-158q-87 0 -139 47.5t-52 128.5v191q0 100 60 148.5t154 48.5q97 0 157.5 -47t60.5 -130v-80q0 -36 -18 -54t-59 -18h-257v-59 q0 -45 26.5 -71t66.5 -26z"/>
<glyph glyph-name="Korea1.71" horiz-adv-x="429" unicode="f" d="M232 520h148v-36q0 -21 -18.5 -32t-41.5 -11h-88v-471h-44q-29 0 -41.5 12.5t-12.5 42.5v416h-106v79h106v65q0 68 30 102t109 34h128v-25q0 -54 -65 -54h-63q-41 0 -41 -50v-72z"/>
<glyph glyph-name="Korea1.72" horiz-adv-x="555" unicode="g" d="M158 344v-199q0 -54 29.5 -75t68.5 -21h131v392h-131q-48 0 -73 -27t-25 -70zM167 -160h151q34 0 51.5 18.5t17.5 50.5v61h-131q-92 0 -144 45.5t-52 130.5v199q0 85 52.5 130t143.5 45h229v-613q0 -62 -38 -104t-126 -42h-213v32q0 47 59 47z"/>
<glyph glyph-name="Korea1.73" horiz-adv-x="568" unicode="h" d="M318 441h-146v-471h-44q-29 0 -41.5 12.5t-12.5 42.5v696h98v-201h146q184 0 184 -165v-385h-43q-29 0 -42 12.5t-13 42.5v329q0 87 -86 87z"/>
<glyph glyph-name="Korea1.74" horiz-adv-x="249" unicode="i" d="M72 657v64h102v-125h-34q-29 0 -48.5 16.5t-19.5 44.5zM74 520h98v-550h-43q-29 0 -42 12.5t-13 42.5v495z"/>
<glyph glyph-name="Korea1.75" horiz-adv-x="315" unicode="j" d="M142 -81v601h98v-601q0 -82 -37.5 -120t-116.5 -38h-97v31q0 23 14.5 36t39.5 13h43q34 0 45 18.5t11 59.5zM140 657v64h102v-125h-35q-29 0 -48 16.5t-19 44.5z"/>
<glyph glyph-name="Korea1.76" horiz-adv-x="539" unicode="k" d="M195 266l211 254h113l-214 -255l226 -295h-109zM75 25v696h98v-751h-43q-29 0 -42 12.5t-13 42.5z"/>
<glyph glyph-name="Korea1.77" horiz-adv-x="251" unicode="l" d="M73 721h98v-751h-44q-28 0 -41 12.5t-13 42.5v696z"/>
<glyph glyph-name="Korea1.78" horiz-adv-x="771" unicode="m" d="M530 441h-96v-471h-43q-29 0 -42 12.5t-13 42.5v416h-169v-471h-44q-29 0 -41.5 12.5t-12.5 42.5v495h461q89 0 130 -37.5t41 -117.5v-395h-45q-28 0 -40.5 12.5t-12.5 42.5v340q0 76 -73 76z"/>
<glyph glyph-name="Korea1.79" horiz-adv-x="565" unicode="n" d="M70 520h239q104 0 145 -38.5t41 -134.5v-377h-44q-29 0 -42 12.5t-13 42.5v322q0 55 -19 74.5t-68 19.5h-141v-471h-42q-30 0 -43 12.5t-13 42.5v495z"/>
<glyph glyph-name="Korea1.80" horiz-adv-x="568" unicode="o" d="M408 173v145q-2 71 -30.5 104t-94.5 33t-95.5 -34.5t-29.5 -102.5v-145q0 -72 30 -105t95 -33q66 0 95.5 32t29.5 106zM283 534q223 0 223 -216v-145q0 -217 -223 -217t-223 217v145q0 216 223 216z"/>
<glyph glyph-name="Korea1.81" horiz-adv-x="546" unicode="p" d="M167 441v-392h117q102 0 102 104v183q0 105 -102 105h-117zM69 -168v688h215q200 0 200 -184v-183q0 -183 -200 -183h-117v-194h-43q-30 0 -42.5 13t-12.5 43z"/>
<glyph glyph-name="Korea1.82" horiz-adv-x="544" unicode="q" d="M379 49v392h-117q-102 0 -102 -105v-183q0 -104 102 -104h117zM477 -224h-43q-30 0 -42.5 13t-12.5 43v138h-117q-200 0 -200 183v183q0 184 200 184h215v-744z"/>
<glyph glyph-name="Korea1.83" horiz-adv-x="408" unicode="r" d="M165 383v-413h-44q-28 0 -41 12.5t-13 42.5v358q0 137 144 137h178v-21q0 -58 -71 -58h-107q-46 0 -46 -58z"/>
<glyph glyph-name="Korea1.84" horiz-adv-x="466" unicode="s" d="M228 520h171v-33q0 -46 -63 -46h-108q-42 0 -62 -19t-20 -49q0 -53 59 -71l89 -27q131 -40 131 -152q0 -73 -50.5 -113t-138.5 -40h-185v29q0 50 60 50h125q42 0 66.5 18.5t24.5 55.5q0 53 -56 71l-89 30q-68 23 -101 58t-33 91q0 58 46 102.5t134 44.5z"/>
<glyph glyph-name="Korea1.85" horiz-adv-x="357" unicode="t" d="M275 -30h-25q-78 0 -112 38t-34 111v322h-90v79h90v180h98v-180h129v-31q0 -23 -14 -35.5t-52 -12.5h-63v-322q0 -70 48 -70h89v-30q0 -49 -64 -49z"/>
<glyph glyph-name="Korea1.86" horiz-adv-x="555" unicode="u" d="M486 -30h-219q-107 0 -154.5 44.5t-47.5 153.5v352h97v-352q0 -71 22.5 -95t82.5 -24h121v471h98v-550z"/>
<glyph glyph-name="Korea1.87" horiz-adv-x="507" unicode="v" d="M310 -30h-72q-43 0 -58 45l-169 505h94l149 -462l147 462h91z"/>
<glyph glyph-name="Korea1.88" horiz-adv-x="734" unicode="w" d="M638 520h89l-140 -550h-57q-46 0 -60 51l-104 340l-119 -391h-52q-31 0 -44 12.5t-20 41.5l-126 496h89l106 -436l121 413h90l121 -412z"/>
<glyph glyph-name="Korea1.89" horiz-adv-x="547" unicode="x" d="M125 -30h-110l201 276l-195 274h109l140 -201l141 201h111l-196 -274l202 -276h-108l-147 207z"/>
<glyph glyph-name="Korea1.90" horiz-adv-x="555" unicode="y" d="M315 -239h-225v32q0 28 13.5 39.5t47.5 11.5h164q41 0 57 16.5t16 48.5v70q-57 -6 -153 -9h-10q-81 0 -121 46t-40 130v374h98v-373q0 -50 16.5 -73.5t57.5 -23.5h3q49 1 149 10v460h98v-612q0 -67 -42 -107t-129 -40z"/>
<glyph glyph-name="Korea1.91" horiz-adv-x="498" unicode="z" d="M139 50h316v-46q0 -34 -37 -34h-382v80l301 391h-288v79h393v-79z"/>
<glyph glyph-name="Korea1.92" horiz-adv-x="440" unicode="{" d="M375 0v-73h-71q-120 0 -120 125v201q0 61 -85 65v74q85 2 85 64v205q0 130 125 130h66v-73q-51 -1 -74.5 -13.5t-23.5 -44.5v-198q0 -80 -44 -108q44 -33 44 -107v-190q0 -35 20.5 -46t77.5 -11z"/>
<glyph glyph-name="Korea1.93" horiz-adv-x="332" unicode="|" d="M128 767h89v-819h-89v819z"/>
<glyph glyph-name="Korea1.94" horiz-adv-x="440" unicode="}" d="M75 -73v73q57 0 77.5 11t20.5 46v190q0 74 44 107q-44 28 -44 108v198q0 32 -23.5 44.5t-74.5 13.5v73h66q125 0 125 -130v-205q0 -62 85 -64v-74q-85 -4 -85 -65v-201q0 -125 -120 -125h-71z"/>
<glyph glyph-name="Korea1.95" horiz-adv-x="725" unicode="~" d="M584 415h89q-4 -87 -47 -141.5t-132 -54.5q-53 0 -87.5 21t-70.5 66q-29 36 -48 50t-43 14q-78 0 -91 -116l-92 1q9 87 55 140.5t126 53.5q58 0 90.5 -21t77.5 -79q20 -27 37.5 -38.5t43.5 -11.5q80 0 92 116z"/>
<glyph glyph-name="Korea1.98" horiz-adv-x="866" unicode="©" d="M431 169h151v-29q0 -24 -13 -37t-51 -13h-87q-91 0 -147.5 50t-56.5 134v130q0 84 56.5 135t147.5 51h147v-27q0 -25 -12 -38.5t-49 -13.5h-86q-51 0 -78.5 -27.5t-27.5 -79.5v-129q0 -48 28 -77t78 -29zM118 346q0 -142 87 -229t229 -87t228.5 87t86.5 229t-86.5 229 t-228.5 87t-229 -87t-87 -229zM38 346q0 175 110.5 284t286.5 109q175 0 285.5 -109t110.5 -284q0 -174 -110.5 -283t-285.5 -109q-176 0 -286.5 109t-110.5 283z"/>
<glyph glyph-name="Korea1.104" horiz-adv-x="333" unicode="·" d="M112 418h109v-114h-109v114z"/>
<glyph glyph-name="Korea1.107" horiz-adv-x="666" unicode="¨" d="M556 584h-113v113h113v-113zM223 584h-113v113h113v-113z"/>
<glyph glyph-name="Korea1.109" horiz-adv-x="333" unicode="­" d="M22 405h288v-80h-288v80z"/>
<glyph glyph-name="Korea1.130" horiz-adv-x="614" unicode="±" d="M540 -30h-472v79h472v-79zM253 603h99v-188h197v-79h-197v-191h-99v191h-195v79h195v188z"/>
<glyph glyph-name="Korea1.131" horiz-adv-x="584" unicode="×" d="M292 274l-154 -153l-59 59l153 154l-153 153l60 59l153 -153l153 153l58 -59l-152 -153l153 -153l-59 -60z"/>
<glyph glyph-name="Korea1.132" horiz-adv-x="501" unicode="÷" d="M193 582h109v-114h-109v114zM193 214h109v-114h-109v114zM471 301h-442v79h442v-79z"/>
<glyph glyph-name="Korea1.138" horiz-adv-x="370" unicode="°" d="M120 599q0 -29 17.5 -46.5t46.5 -17.5t47 17.5t18 46.5t-18.5 47t-46.5 18q-29 0 -46.5 -18t-17.5 -47zM48 599q0 58 38.5 94.5t98.5 36.5q59 0 98 -36.5t39 -94.5t-39 -94.5t-98 -36.5q-60 0 -98.5 36t-38.5 95z"/>
<glyph glyph-name="Korea1.143" horiz-adv-x="920" unicode="¢" d="M347 91l124 350h-35q-51 0 -78.5 -27.5t-27.5 -79.5v-179q0 -36 17 -64zM436 49h191v-29q0 -24 -13 -37t-51 -13h-127q-22 0 -42 3l-34 -95l-78 30l33 93q-83 49 -83 153v180q0 84 56.5 135t147.5 51h63l44 123l79 -30l-33 -93h34v-27q0 -25 -12 -38.5t-49 -13.5h-1 l-140 -391q5 -1 15 -1z"/>
<glyph glyph-name="Korea1.144" horiz-adv-x="920" unicode="£" d="M205 267v62h60q-5 52 -5 81q0 34 5 61q14 85 70.5 132.5t137.5 47.5h12q87 -5 148 -66q17 -21 31 -55.5t16 -58.5h-80q0 36 -33.5 71.5t-88.5 35.5q-45 0 -78.5 -25.5t-44.5 -64.5q-8 -26 -8 -87q0 -31 3 -72h233v-62h-227q3 -30 3 -62q0 -117 -30 -185h207h22 q36 0 59.5 8.5t36.5 38.5q8 22 8 52h71q0 -35 -7 -57q-10 -38 -28.5 -62t-48.5 -34t-58 -13t-75 -3h-340v71h68q12 20 23 75t11 113q0 20 -4 58h-69z"/>
<glyph glyph-name="Korea1.145" horiz-adv-x="920" unicode="¥" d="M770 716l-238 -398h181v-80h-212v-53h212v-80h-212v-135h-43q-29 0 -42 12.5t-13 41.5v81h-219v80h219v53h-219v80h189l-233 398h106l208 -360l209 360h107z"/>
<glyph glyph-name="Korea1.155" horiz-adv-x="466" unicode="§" d="M198 253l23 -7h8q42 0 66.5 20.5t24.5 57.5q0 49 -56 67l-3 1h-40q-42 0 -62 -19t-20 -49q0 -53 59 -71zM221 716h171v-33q0 -46 -63 -46h-108q-42 0 -62 -18.5t-20 -48.5q0 -53 59 -71l89 -27q131 -40 131 -148q0 -85 -67 -127q67 -42 67 -119q0 -73 -51 -115t-138 -42 h-185v29q0 50 60 50h125q42 0 66.5 20.5t24.5 57.5q0 49 -56 67l-89 30q-68 23 -101 58t-33 91q0 36 18.5 69t55.5 54q-74 43 -74 123q0 58 46 102t134 44z"/>
<glyph glyph-name="Korea1.176" horiz-adv-x="920" unicode="«" d="M762 -29l-475 321l479 309l35 -50l-403 -261l398 -268zM557 -29l-474 321l479 309l35 -50l-404 -261l399 -268z"/>
<glyph glyph-name="Korea1.177" horiz-adv-x="920" unicode="»" d="M488 290l-403 261l34 51l479 -310l-474 -321l-34 51zM692 290l-403 261l35 51l479 -310l-474 -321l-35 51z"/>
<glyph glyph-name="Korea1.194" horiz-adv-x="920" unicode="¬" d="M36 117v63h826v-326h-72v263h-754z"/>
<glyph glyph-name="Korea1.199" horiz-adv-x="333" unicode="´" d="M74 584l80 146h110l-91 -118q-12 -16 -24 -22t-34 -6h-41z"/>
<glyph glyph-name="Korea1.206" horiz-adv-x="333" unicode="¸" d="M125 -109l26 86h75l-16 -52q74 -9 74 -72q0 -38 -37.5 -65t-103.5 -27q-37 0 -74 7l9 56q30 -3 46 -3q78 0 78 37q0 16 -14.5 24t-62.5 9z"/>
<glyph glyph-name="Korea1.208" horiz-adv-x="330" unicode="¡" d="M109 716h109v-114h-109v114zM106 -54l17 538h83l18 -538h-118z"/>
<glyph glyph-name="Korea1.209" horiz-adv-x="544" unicode="¿" d="M355 602h-109v114h109v-114zM251 452v55h98v-58q0 -48 -9 -76t-33 -44l-91 -62q-44 -30 -59.5 -60.5t-15.5 -70.5q0 -53 38.5 -82t109.5 -29q95 0 195 30l5 -78q-97 -31 -198 -31q-112 0 -180 49.5t-68 136.5q0 114 94 182l86 61q19 14 23.5 29.5t4.5 47.5z"/>
<glyph glyph-name="Korea1.214" horiz-adv-x="561" unicode="¤" d="M411 263v35q0 61 -30.5 99t-94.5 38q-59 0 -92 -35t-33 -102v-35q0 -67 32.5 -102.5t92.5 -35.5t92.5 35t32.5 103zM286 509q80 0 130 -28l50 51l61 -59l-50 -51q28 -50 28 -124v-35q0 -74 -28 -124l50 -51l-61 -59l-49 50q-50 -28 -131 -28q-85 0 -139 33l-54 -55 l-61 59l58 59q-23 48 -23 116v35q0 67 23 115l-58 60l61 59l54 -56q54 33 139 33z"/>
<glyph glyph-name="Korea1.244" horiz-adv-x="532" unicode="¶" d="M195 -103v420q-66 8 -116 58t-50 136v10q3 94 56 144.5t148 50.5h227v-873h-37q-29 0 -42 12.5t-13 41.5v739h-82v-793h-36q-29 0 -42 12.5t-13 41.5z"/>
<glyph glyph-name="Korea1.666" horiz-adv-x="985" unicode="Æ" d="M481 637h-63l-162 -367h225v367zM901 -30h-420v240q-27 -21 -68 -21h-193l-97 -219h-106l330 746h596v-25q0 -28 -11 -41t-44 -13h-309v-232h332v-28q0 -24 -11 -37.5t-43 -13.5h-278v-277h376v-28q0 -24 -11.5 -37.5t-42.5 -13.5z"/>
<glyph glyph-name="Korea1.667" horiz-adv-x="718" unicode="Ð" d="M408 637h-186v-253h171v-29q0 -24 -13 -37t-51 -13h-107v-256h186q65 0 102.5 32.5t37.5 88.5v344q0 60 -37 91.5t-103 31.5zM125 305h-94v79h94v332h283q117 0 177 -55.5t60 -146.5v-344q0 -90 -60 -145t-177 -55h-283v335z"/>
<glyph glyph-name="Korea1.668" horiz-adv-x="387" unicode="ª" d="M169 519q-43 0 -43 -39v-34q0 -34 43 -34h76v102q-48 5 -76 5zM325 612v-270h-156q-58 0 -90.5 26t-32.5 75v39q0 108 119 108h4q28 0 76 -6v28q0 35 -41 35h-83q-30 0 -40 9.5t-10 29.5v30h133q121 0 121 -104z"/>
<glyph glyph-name="Korea1.673" horiz-adv-x="695" unicode="Ø" d="M347 646q-91 0 -140 -64.5t-49 -168.5v-141q0 -108 42 -166l218 527q-34 13 -71 13zM537 273v141q0 99 -44 161l-217 -525q30 -10 71 -10q190 0 190 233zM347 730q57 0 105 -14l27 65h99l-44 -106q101 -77 101 -262v-141q0 -154 -71.5 -235t-216.5 -81q-57 0 -105 14 l-29 -72h-98l46 112q-101 77 -101 263v140q0 154 71.5 235.5t215.5 81.5z"/>
<glyph glyph-name="Korea1.675" horiz-adv-x="382" unicode="º" d="M257 480v100q0 76 -68 76t-68 -76v-100q0 -77 68 -77t68 77zM189 726q149 0 149 -146v-100q0 -145 -149 -145t-149 145v100q0 146 149 146z"/>
<glyph glyph-name="Korea1.676" horiz-adv-x="610" unicode="Þ" d="M325 473h-153v-265h155q78 0 108.5 34t30.5 101q0 75 -33.5 102.5t-107.5 27.5zM172 129v-159h-42q-29 0 -42 12.5t-13 41.5v692h97v-163h145q124 0 184.5 -46t60.5 -161q0 -117 -57.5 -167t-179.5 -50h-153z"/>
<glyph glyph-name="Korea1.748" horiz-adv-x="800" unicode="½" d="M701 -44h-162q-27 0 -37.5 9t-10.5 35v40q0 35 39 72l99 81q33 30 33 63q0 46 -49 46q-46 0 -118 -12v65q74 13 121 13q52 0 86.5 -29.5t34.5 -82.5q0 -57 -60 -113q-16 -15 -49.5 -41.5t-48.5 -39.5q-13 -13 -13 -31v-10h174v-28q0 -37 -39 -37zM93 -44l449 760h94 l-450 -760h-93zM210 685v-369h-36q-39 0 -39 42v293h-61v65h104q32 0 32 -31z"/>
<glyph glyph-name="Korea1.751" horiz-adv-x="800" unicode="¼" d="M113 -44l449 760h94l-450 -760h-93zM210 685v-369h-36q-39 0 -39 42v293h-61v65h104q32 0 32 -31zM615 88v174l-111 -174h111zM691 24h-2v-68h-36q-38 0 -38 44v24h-193v61l150 241q10 16 20.5 23t30.5 7h66v-268h37v-32q0 -32 -35 -32z"/>
<glyph glyph-name="Korea1.752" horiz-adv-x="800" unicode="¾" d="M158 730q58 0 92 -27t34 -84q0 -55 -35 -88q44 -27 44 -93q0 -129 -143 -129h-7q-52 2 -104 10v28q0 34 32 34q1 0 4 -0.5t5 -0.5q36 -4 63 -4q37 0 55.5 12.5t18.5 45.5q0 32 -14 45.5t-46 13.5h-68q-15 0 -21 5.5t-6 20.5v40h95q29 0 40 13.5t11 45.5q0 45 -51 45 q-45 0 -113 -11v63q60 15 114 15zM133 -44l449 760h94l-450 -760h-93zM615 88v174l-111 -174h111zM691 24h-2v-68h-36q-38 0 -38 44v24h-193v61l150 241q10 16 20.5 23t30.5 7h66v-268h37v-32q0 -32 -35 -32z"/>
<glyph glyph-name="Korea1.757" horiz-adv-x="860" unicode="æ" d="M472 351v-67h218q11 0 14.5 4t3.5 16v43q0 47 -31.5 77.5t-88.5 30.5q-51 0 -82.5 -29.5t-33.5 -74.5zM237 252q-44 0 -64 -18t-20 -60v-53q0 -39 25 -55.5t59 -16.5h67q29 0 49.5 20.5t20.5 48.5v124q-74 10 -137 10zM565 49h221v-32q0 -24 -12 -35.5t-51 -11.5h-158 q-88 0 -136 47q-40 -47 -107 -47h-86q-85 0 -133 37.5t-48 108.5v62q0 157 171 157h10q70 -1 138 -10v45q0 71 -80 71h-135q-38 0 -51 12t-13 35v32h199q94 0 138 -41q59 55 156 55q96 0 157 -50.5t61 -136.5v-70q0 -36 -18 -54t-59 -18h-257v-64q1 -43 27.5 -67.5 t65.5 -24.5z"/>
<glyph glyph-name="Korea1.759" horiz-adv-x="583" unicode="ð" d="M156 278v-106q0 -133 131 -133q74 0 105.5 30.5t31.5 101.5v111q0 67 -35 96t-106 29q-64 0 -95.5 -29.5t-31.5 -99.5zM347 720l84 76l60 -60l-61 -54q88 -65 88 -219v-304q0 -98 -59 -150t-166 -52h-6q-109 2 -167.5 52.5t-58.5 149.5v132q0 94 55.5 146t164.5 52 q95 0 143 -48v33q0 104 -61 147l-120 -108l-59 59l85 77q-3 0 -7 0.5t-7 0.5q-32 0 -100 -5h-6q-35 0 -35 36v41q72 8 142 8q46 0 91 -10z"/>
<glyph glyph-name="Korea1.766" horiz-adv-x="564" unicode="ø" d="M283 455q-59 0 -92 -35t-33 -102v-145q0 -47 15 -78l142 357q-15 3 -32 3zM408 173v145q0 46 -18 81l-143 -360q15 -4 36 -4q60 0 92.5 35t32.5 103zM283 534q30 0 62 -5l35 87h96l-47 -119q77 -52 77 -179v-145q0 -217 -223 -217q-37 0 -67 6l-36 -91h-95l49 124 q-74 52 -74 178v145q0 216 223 216z"/>
<glyph glyph-name="Korea1.768" horiz-adv-x="626" unicode="ß" d="M172 505v-535h-42q-29 0 -42 12.5t-13 41.5v485q0 119 54 170t163 51q90 0 144.5 -41.5t54.5 -104.5q0 -62 -35 -123q-40 -69 -40 -86q0 -13 2.5 -21t19 -25t49.5 -40q61 -42 83 -81t22 -86q0 -72 -50.5 -119t-136.5 -47q-122 0 -172 81l68 56q14 -26 43.5 -40.5 t59.5 -14.5q38 0 61 23.5t23 59.5q0 27 -12 48t-47 47q-76 56 -97.5 84t-21.5 61q0 35 42 106q40 69 40 107q0 33 -28 57t-74 24q-118 0 -118 -150z"/>
<glyph glyph-name="Korea1.769" horiz-adv-x="538" unicode="þ" d="M281 441h-108v-392h107q50 0 78.5 27t28.5 80v178q0 53 -28.5 80t-77.5 27zM75 -184v905h98v-201h107q100 0 152.5 -44.5t52.5 -131.5v-198q0 -176 -205 -176h-107v-209h-44q-28 0 -41 12.5t-13 42.5z"/>
<glyph glyph-name="Korea1.842" horiz-adv-x="333" unicode="¹" d="M214 685v-369h-36q-39 0 -39 42v293h-61v65h104q32 0 32 -31z"/>
<glyph glyph-name="Korea1.843" horiz-adv-x="333" unicode="²" d="M252 318h-162q-27 0 -37.5 9t-10.5 35v45q0 42 39 72l102 77q30 22 30 60q0 22 -17 35t-46 13q-32 0 -104 -12v65q63 13 106 13q59 0 97.5 -30t38.5 -84q0 -65 -57 -108l-101 -77q-13 -10 -13 -31v-17h174v-28q0 -37 -39 -37z"/>
<glyph glyph-name="Korea1.844" horiz-adv-x="333" unicode="³" d="M148 730q59 0 97.5 -27t38.5 -84q0 -62 -43 -88q24 -12 38 -38t14 -55q0 -129 -143 -129h-7q-52 2 -104 10v28q0 34 32 34q1 0 4 -0.5t5 -0.5q36 -4 63 -4q37 0 55.5 12.5t18.5 45.5q0 59 -70 59h-58q-15 0 -21 5.5t-6 20.5v40h85q61 0 61 59q0 45 -61 45q-33 0 -101 -11 l-2 63q60 15 104 15z"/>
<glyph glyph-name="Korea1.18352" horiz-adv-x="248" unicode="¦" d="M168 244v-274h-88v274h88zM168 716v-273h-88v273h88z"/>
<glyph glyph-name="Korea1.18353" horiz-adv-x="871" unicode="®" d="M468 516h-112v-146h112q63 0 63 61v27q0 58 -63 58zM118 346q0 -142 87 -229t229 -87q114 0 195 59h-80l-99 207h-94v-207h-41q-23 0 -34 10.5t-11 35.5v455h198q72 0 110.5 -33t38.5 -87v-45q0 -39 -21 -73.5t-62 -43.5l104 -212q111 87 111 250q0 142 -86.5 229 t-228.5 87t-229 -87t-87 -229zM38 346q0 175 110.5 284t286.5 109q175 0 285.5 -109t110.5 -284q0 -174 -110.5 -283t-285.5 -109q-176 0 -286.5 109t-110.5 283z"/>
<glyph glyph-name="Korea1.18354" horiz-adv-x="498" unicode="¯" d="M507 800v-80h-517v80h517z"/>
<glyph glyph-name="Korea1.18355" horiz-adv-x="564" unicode="µ" d="M492 -30h-219q-63 0 -105 15v-209h-43q-29 0 -42 12.5t-13 41.5l1 690h97v-352q0 -71 22.5 -95t82.5 -24h121v471h98v-550z"/>
<glyph glyph-name="Korea1.18356" horiz-adv-x="656" unicode="À" d="M215 930h110l80 -146h-41q-22 0 -34 6t-24 22zM328 622l-114 -352h228zM540 -30l-87 265q-10 -19 -34 -32.5t-56 -13.5h-175l-70 -219h-101l250 746h85q35 0 48 -36l240 -710h-100z"/>
<glyph glyph-name="Korea1.18357" horiz-adv-x="656" unicode="Á" d="M309 930h110l-91 -118q-12 -16 -24 -22t-34 -6h-41zM328 622l-114 -352h228zM540 -30l-87 265q-10 -19 -34 -32.5t-56 -13.5h-175l-70 -219h-101l250 746h85q35 0 48 -36l240 -710h-100z"/>
<glyph glyph-name="Korea1.18358" horiz-adv-x="656" unicode="Â" d="M325 859l-65 -78h-98l114 135h97l113 -135h-98zM328 622l-114 -352h228zM540 -30l-87 265q-10 -19 -34 -32.5t-56 -13.5h-175l-70 -219h-101l250 746h85q35 0 48 -36l240 -710h-100z"/>
<glyph glyph-name="Korea1.18359" horiz-adv-x="656" unicode="Ã" d="M252 901q38 0 86 -26q36 -19 54 -19q33 0 45 45h77q-9 -55 -38.5 -88t-79.5 -33q-43 0 -93 27q-43 19 -50 19q-33 0 -43 -47h-75q5 54 36 88t81 34zM328 622l-114 -352h228zM540 -30l-87 265q-10 -19 -34 -32.5t-56 -13.5h-175l-70 -219h-101l250 746h85q35 0 48 -36 l240 -710h-100z"/>
<glyph glyph-name="Korea1.18360" horiz-adv-x="656" unicode="Ä" d="M281 900v-105h-104v105h104zM472 900v-105h-103v105h103zM328 622l-114 -352h228zM540 -30l-87 265q-10 -19 -34 -32.5t-56 -13.5h-175l-70 -219h-101l250 746h85q35 0 48 -36l240 -710h-100z"/>
<glyph glyph-name="Korea1.18361" horiz-adv-x="656" unicode="Å" d="M220 856q0 44 29.5 72t74.5 28q46 0 75.5 -27.5t29.5 -72.5t-29.5 -72.5t-75.5 -27.5q-45 0 -74.5 28t-29.5 72zM281 856q0 -43 43 -43q44 0 44 43q0 20 -12 32t-32 12t-31.5 -12t-11.5 -32zM328 622l-114 -352h228zM540 -30l-87 265q-10 -19 -34 -32.5t-56 -13.5h-175 l-70 -219h-101l250 746h85q35 0 48 -36l240 -710h-100z"/>
<glyph glyph-name="Korea1.18362" horiz-adv-x="573" unicode="Ç" d="M267 -109l24 79h-30q-88 0 -144 53t-56 139v365q0 88 59 138.5t164 50.5h243v-28q0 -24 -13.5 -37.5t-51.5 -13.5h-175q-128 0 -128 -123v-345q0 -51 27.5 -85.5t78.5 -34.5h272v-29q0 -50 -66 -50h-105l-14 -45q74 -9 74 -72q0 -38 -37.5 -65t-103.5 -27q-37 0 -74 7 l9 56q30 -3 46 -3q78 0 78 37q0 16 -14.5 24t-62.5 9z"/>
<glyph glyph-name="Korea1.18363" horiz-adv-x="592" unicode="È" d="M201 930h110l80 -146h-41q-22 0 -34 6t-24 22zM494 -30h-420v746h462v-25q0 -28 -11 -41t-44 -13h-309v-232h332v-28q0 -24 -11 -37.5t-43 -13.5h-278v-277h376v-28q0 -24 -11.5 -37.5t-42.5 -13.5z"/>
<glyph glyph-name="Korea1.18364" horiz-adv-x="592" unicode="É" d="M281 930h110l-91 -118q-12 -16 -24 -22t-34 -6h-41zM494 -30h-420v746h462v-25q0 -28 -11 -41t-44 -13h-309v-232h332v-28q0 -24 -11 -37.5t-43 -13.5h-278v-277h376v-28q0 -24 -11.5 -37.5t-42.5 -13.5z"/>
<glyph glyph-name="Korea1.18365" horiz-adv-x="592" unicode="Ê" d="M297 859l-65 -78h-98l114 135h97l113 -135h-98zM494 -30h-420v746h462v-25q0 -28 -11 -41t-44 -13h-309v-232h332v-28q0 -24 -11 -37.5t-43 -13.5h-278v-277h376v-28q0 -24 -11.5 -37.5t-42.5 -13.5z"/>
<glyph glyph-name="Korea1.18366" horiz-adv-x="592" unicode="Ë" d="M252 900v-105h-104v105h104zM443 900v-105h-103v105h103zM494 -30h-420v746h462v-25q0 -28 -11 -41t-44 -13h-309v-232h332v-28q0 -24 -11 -37.5t-43 -13.5h-278v-277h376v-28q0 -24 -11.5 -37.5t-42.5 -13.5z"/>
<glyph glyph-name="Korea1.18367" horiz-adv-x="263" unicode="Ì" d="M37 930h110l80 -146h-41q-22 0 -34 6t-24 22zM84 716h99v-746h-45q-29 0 -41.5 12.5t-12.5 41.5v692z"/>
<glyph glyph-name="Korea1.18368" horiz-adv-x="263" unicode="Í" d="M117 930h110l-91 -118q-12 -16 -24 -22t-34 -6h-41zM84 716h99v-746h-45q-29 0 -41.5 12.5t-12.5 41.5v692z"/>
<glyph glyph-name="Korea1.18369" horiz-adv-x="263" unicode="Î" d="M133 859l-65 -78h-98l114 135h97l113 -135h-98zM84 716h99v-746h-45q-29 0 -41.5 12.5t-12.5 41.5v692z"/>
<glyph glyph-name="Korea1.18370" horiz-adv-x="263" unicode="Ï" d="M88 900v-105h-104v105h104zM279 900v-105h-103v105h103zM84 716h99v-746h-45q-29 0 -41.5 12.5t-12.5 41.5v692z"/>
<glyph glyph-name="Korea1.18371" horiz-adv-x="669" unicode="Ñ" d="M255 901q38 0 86 -26q36 -19 54 -19q33 0 45 45h77q-9 -55 -38.5 -88t-79.5 -33q-43 0 -93 27q-43 19 -50 19q-33 0 -43 -47h-75q5 54 36 88t81 34zM74 24v692h309q111 0 161 -41.5t50 -153.5v-551h-43q-29 0 -42 12.5t-13 41.5v498q0 66 -24.5 90.5t-88.5 24.5h-211 v-667h-44q-29 0 -41.5 12.5t-12.5 41.5z"/>
<glyph glyph-name="Korea1.18372" horiz-adv-x="695" unicode="Ò" d="M241 930h110l80 -146h-41q-22 0 -34 6t-24 22zM536 273v141q0 105 -49 168.5t-141 63.5q-91 0 -140 -64t-49 -169v-141q0 -232 189 -232q190 0 190 233zM346 730q288 0 288 -317v-141q0 -154 -71.5 -235t-216.5 -81q-144 0 -215.5 81.5t-71.5 235.5v140q0 154 71.5 235.5 t215.5 81.5z"/>
<glyph glyph-name="Korea1.18373" horiz-adv-x="695" unicode="Ó" d="M321 930h110l-91 -118q-12 -16 -24 -22t-34 -6h-41zM536 273v141q0 105 -49 168.5t-141 63.5q-91 0 -140 -64t-49 -169v-141q0 -232 189 -232q190 0 190 233zM346 730q288 0 288 -317v-141q0 -154 -71.5 -235t-216.5 -81q-144 0 -215.5 81.5t-71.5 235.5v140 q0 154 71.5 235.5t215.5 81.5z"/>
<glyph glyph-name="Korea1.18374" horiz-adv-x="695" unicode="Ô" d="M337 859l-65 -78h-98l114 135h97l113 -135h-98zM536 273v141q0 105 -49 168.5t-141 63.5q-91 0 -140 -64t-49 -169v-141q0 -232 189 -232q190 0 190 233zM346 730q288 0 288 -317v-141q0 -154 -71.5 -235t-216.5 -81q-144 0 -215.5 81.5t-71.5 235.5v140 q0 154 71.5 235.5t215.5 81.5z"/>
<glyph glyph-name="Korea1.18375" horiz-adv-x="695" unicode="Õ" d="M264 901q38 0 86 -26q36 -19 54 -19q33 0 45 45h77q-9 -55 -38.5 -88t-79.5 -33q-43 0 -93 27q-43 19 -50 19q-33 0 -43 -47h-75q5 54 36 88t81 34zM536 273v141q0 105 -49 168.5t-141 63.5q-91 0 -140 -64t-49 -169v-141q0 -232 189 -232q190 0 190 233zM346 730 q288 0 288 -317v-141q0 -154 -71.5 -235t-216.5 -81q-144 0 -215.5 81.5t-71.5 235.5v140q0 154 71.5 235.5t215.5 81.5z"/>
<glyph glyph-name="Korea1.18376" horiz-adv-x="695" unicode="Ö" d="M293 900v-105h-104v105h104zM484 900v-105h-103v105h103zM536 273v141q0 105 -49 168.5t-141 63.5q-91 0 -140 -64t-49 -169v-141q0 -232 189 -232q190 0 190 233zM346 730q288 0 288 -317v-141q0 -154 -71.5 -235t-216.5 -81q-144 0 -215.5 81.5t-71.5 235.5v140 q0 154 71.5 235.5t215.5 81.5z"/>
<glyph glyph-name="Korea1.18377" horiz-adv-x="676" unicode="Ù" d="M243 930h110l80 -146h-41q-22 0 -34 6t-24 22zM595 716v-746h-309q-111 0 -161 41.5t-50 153.5v551h98v-552q0 -66 24.5 -90.5t88.5 -24.5h211v667h98z"/>
<glyph glyph-name="Korea1.18378" horiz-adv-x="676" unicode="Ú" d="M323 930h110l-91 -118q-12 -16 -24 -22t-34 -6h-41zM595 716v-746h-309q-111 0 -161 41.5t-50 153.5v551h98v-552q0 -66 24.5 -90.5t88.5 -24.5h211v667h98z"/>
<glyph glyph-name="Korea1.18379" horiz-adv-x="676" unicode="Û" d="M339 859l-65 -78h-98l114 135h97l113 -135h-98zM595 716v-746h-309q-111 0 -161 41.5t-50 153.5v551h98v-552q0 -66 24.5 -90.5t88.5 -24.5h211v667h98z"/>
<glyph glyph-name="Korea1.18380" horiz-adv-x="676" unicode="Ü" d="M294 900v-105h-104v105h104zM485 900v-105h-103v105h103zM595 716v-746h-309q-111 0 -161 41.5t-50 153.5v551h98v-552q0 -66 24.5 -90.5t88.5 -24.5h211v667h98z"/>
<glyph glyph-name="Korea1.18381" horiz-adv-x="664" unicode="Ý" d="M322 930h110l-91 -118q-12 -16 -24 -22t-34 -6h-41zM377 266v-296h-43q-29 0 -42 12.5t-13 41.5v242l-263 450h106l208 -360l209 360h107z"/>
<glyph glyph-name="Korea1.18382" horiz-adv-x="537" unicode="à" d="M167 730h110l80 -146h-41q-22 0 -34 6t-24 22zM237 252q-44 0 -64 -18t-20 -60v-53q0 -39 25 -55.5t59 -16.5h137v193q-74 10 -137 10zM472 370v-400h-236q-85 0 -133 37.5t-48 108.5v62q0 157 171 157h10q70 -1 138 -10v45q0 71 -80 71h-135q-38 0 -51 12t-13 35v32h199 q178 0 178 -150z"/>
<glyph glyph-name="Korea1.18383" horiz-adv-x="537" unicode="á" d="M247 730h110l-91 -118q-12 -16 -24 -22t-34 -6h-41zM237 252q-44 0 -64 -18t-20 -60v-53q0 -39 25 -55.5t59 -16.5h137v193q-74 10 -137 10zM472 370v-400h-236q-85 0 -133 37.5t-48 108.5v62q0 157 171 157h10q70 -1 138 -10v45q0 71 -80 71h-135q-38 0 -51 12t-13 35 v32h199q178 0 178 -150z"/>
<glyph glyph-name="Korea1.18384" horiz-adv-x="537" unicode="â" d="M263 659l-65 -78h-98l114 135h97l113 -135h-98zM237 252q-44 0 -64 -18t-20 -60v-53q0 -39 25 -55.5t59 -16.5h137v193q-74 10 -137 10zM472 370v-400h-236q-85 0 -133 37.5t-48 108.5v62q0 157 171 157h10q70 -1 138 -10v45q0 71 -80 71h-135q-38 0 -51 12t-13 35v32 h199q178 0 178 -150z"/>
<glyph glyph-name="Korea1.18385" horiz-adv-x="537" unicode="ã" d="M193 701q38 0 86 -26q36 -19 54 -19q33 0 45 45h77q-9 -55 -38.5 -88t-79.5 -33q-43 0 -93 27q-43 19 -50 19q-33 0 -43 -47h-75q5 54 36 88t81 34zM237 252q-44 0 -64 -18t-20 -60v-53q0 -39 25 -55.5t59 -16.5h137v193q-74 10 -137 10zM472 370v-400h-236 q-85 0 -133 37.5t-48 108.5v62q0 157 171 157h10q70 -1 138 -10v45q0 71 -80 71h-135q-38 0 -51 12t-13 35v32h199q178 0 178 -150z"/>
<glyph glyph-name="Korea1.18386" horiz-adv-x="537" unicode="ä" d="M219 700v-105h-104v105h104zM410 700v-105h-103v105h103zM237 252q-44 0 -64 -18t-20 -60v-53q0 -39 25 -55.5t59 -16.5h137v193q-74 10 -137 10zM472 370v-400h-236q-85 0 -133 37.5t-48 108.5v62q0 157 171 157h10q70 -1 138 -10v45q0 71 -80 71h-135q-38 0 -51 12 t-13 35v32h199q178 0 178 -150z"/>
<glyph glyph-name="Korea1.18387" horiz-adv-x="537" unicode="å" d="M158 656q0 44 29.5 72t74.5 28q46 0 75.5 -27.5t29.5 -72.5t-29.5 -72.5t-75.5 -27.5q-45 0 -74.5 28t-29.5 72zM219 656q0 -43 43 -43q44 0 44 43q0 20 -12 32t-32 12t-31.5 -12t-11.5 -32zM237 252q-44 0 -64 -18t-20 -60v-53q0 -39 25 -55.5t59 -16.5h137v193 q-74 10 -137 10zM472 370v-400h-236q-85 0 -133 37.5t-48 108.5v62q0 157 171 157h10q70 -1 138 -10v45q0 71 -80 71h-135q-38 0 -51 12t-13 35v32h199q178 0 178 -150z"/>
<glyph glyph-name="Korea1.18388" horiz-adv-x="498" unicode="ç" d="M255 -109l24 79h-13q-91 0 -147.5 50t-56.5 134v180q0 84 56.5 135t147.5 51h187v-27q0 -25 -12 -38.5t-49 -13.5h-126q-51 0 -78.5 -27.5t-27.5 -79.5v-179q0 -48 28 -77t78 -29h191v-29q0 -24 -13 -37t-51 -13h-39l-14 -45q74 -9 74 -72q0 -38 -37.5 -65t-103.5 -27 q-37 0 -74 7l9 56q30 -3 46 -3q78 0 78 37q0 16 -14.5 24t-62.5 9z"/>
<glyph glyph-name="Korea1.18389" horiz-adv-x="543" unicode="è" d="M171 730h110l80 -146h-41q-22 0 -34 6t-24 22zM153 357v-73h218q11 0 14.5 4t3.5 16v53q0 46 -31 72t-89 26q-53 0 -84.5 -26.5t-31.5 -71.5zM246 49h221v-32q0 -24 -12 -35.5t-51 -11.5h-158q-87 0 -139 47.5t-52 128.5v191q0 100 60 148.5t154 48.5q97 0 157.5 -47 t60.5 -130v-80q0 -36 -18 -54t-59 -18h-257v-59q0 -45 26.5 -71t66.5 -26z"/>
<glyph glyph-name="Korea1.18390" horiz-adv-x="543" unicode="é" d="M251 730h110l-91 -118q-12 -16 -24 -22t-34 -6h-41zM153 357v-73h218q11 0 14.5 4t3.5 16v53q0 46 -31 72t-89 26q-53 0 -84.5 -26.5t-31.5 -71.5zM246 49h221v-32q0 -24 -12 -35.5t-51 -11.5h-158q-87 0 -139 47.5t-52 128.5v191q0 100 60 148.5t154 48.5 q97 0 157.5 -47t60.5 -130v-80q0 -36 -18 -54t-59 -18h-257v-59q0 -45 26.5 -71t66.5 -26z"/>
<glyph glyph-name="Korea1.18391" horiz-adv-x="543" unicode="ê" d="M267 659l-65 -78h-98l114 135h97l113 -135h-98zM153 357v-73h218q11 0 14.5 4t3.5 16v53q0 46 -31 72t-89 26q-53 0 -84.5 -26.5t-31.5 -71.5zM246 49h221v-32q0 -24 -12 -35.5t-51 -11.5h-158q-87 0 -139 47.5t-52 128.5v191q0 100 60 148.5t154 48.5q97 0 157.5 -47 t60.5 -130v-80q0 -36 -18 -54t-59 -18h-257v-59q0 -45 26.5 -71t66.5 -26z"/>
<glyph glyph-name="Korea1.18392" horiz-adv-x="543" unicode="ë" d="M229 700v-105h-104v105h104zM420 700v-105h-103v105h103zM153 357v-73h218q11 0 14.5 4t3.5 16v53q0 46 -31 72t-89 26q-53 0 -84.5 -26.5t-31.5 -71.5zM246 49h221v-32q0 -24 -12 -35.5t-51 -11.5h-158q-87 0 -139 47.5t-52 128.5v191q0 100 60 148.5t154 48.5 q97 0 157.5 -47t60.5 -130v-80q0 -36 -18 -54t-59 -18h-257v-59q0 -45 26.5 -71t66.5 -26z"/>
<glyph glyph-name="Korea1.18393" horiz-adv-x="239" unicode="ì" d="M69 520h98v-550h-43q-29 0 -42 12.5t-13 42.5v495zM24 730h110l80 -146h-41q-22 0 -34 6t-24 22z"/>
<glyph glyph-name="Korea1.18394" horiz-adv-x="239" unicode="í" d="M69 520h98v-550h-43q-29 0 -42 12.5t-13 42.5v495zM99 730h110l-91 -118q-12 -16 -24 -22t-34 -6h-41z"/>
<glyph glyph-name="Korea1.18395" horiz-adv-x="239" unicode="î" d="M69 520h98v-550h-43q-29 0 -42 12.5t-13 42.5v495zM110 659l-65 -78h-98l114 135h97l113 -135h-98z"/>
<glyph glyph-name="Korea1.18396" horiz-adv-x="239" unicode="ï" d="M69 520h98v-550h-43q-29 0 -42 12.5t-13 42.5v495zM67 700v-105h-104v105h104zM258 700v-105h-103v105h103z"/>
<glyph glyph-name="Korea1.18397" horiz-adv-x="565" unicode="ñ" d="M192 701q38 0 86 -26q36 -19 54 -19q33 0 45 45h77q-9 -55 -38.5 -88t-79.5 -33q-43 0 -93 27q-43 19 -50 19q-33 0 -43 -47h-75q5 54 36 88t81 34zM70 520h239q104 0 145 -38.5t41 -134.5v-377h-44q-29 0 -42 12.5t-13 42.5v322q0 55 -19 74.5t-68 19.5h-141v-471h-42 q-30 0 -43 12.5t-13 42.5v495z"/>
<glyph glyph-name="Korea1.18398" horiz-adv-x="568" unicode="ò" d="M174 730h110l80 -146h-41q-22 0 -34 6t-24 22zM408 173v145q0 61 -30.5 99t-94.5 38q-59 0 -92 -35t-33 -102v-145q0 -67 32.5 -102.5t92.5 -35.5t92.5 35t32.5 103zM283 534q223 0 223 -216v-145q0 -217 -223 -217t-223 217v145q0 216 223 216z"/>
<glyph glyph-name="Korea1.18399" horiz-adv-x="568" unicode="ó" d="M254 730h110l-91 -118q-12 -16 -24 -22t-34 -6h-41zM408 173v145q0 61 -30.5 99t-94.5 38q-59 0 -92 -35t-33 -102v-145q0 -67 32.5 -102.5t92.5 -35.5t92.5 35t32.5 103zM283 534q223 0 223 -216v-145q0 -217 -223 -217t-223 217v145q0 216 223 216z"/>
<glyph glyph-name="Korea1.18400" horiz-adv-x="568" unicode="ô" d="M270 659l-65 -78h-98l114 135h97l113 -135h-98zM408 173v145q0 61 -30.5 99t-94.5 38q-59 0 -92 -35t-33 -102v-145q0 -67 32.5 -102.5t92.5 -35.5t92.5 35t32.5 103zM283 534q223 0 223 -216v-145q0 -217 -223 -217t-223 217v145q0 216 223 216z"/>
<glyph glyph-name="Korea1.18401" horiz-adv-x="568" unicode="õ" d="M197 701q38 0 86 -26q36 -19 54 -19q33 0 45 45h77q-9 -55 -38.5 -88t-79.5 -33q-43 0 -93 27q-43 19 -50 19q-33 0 -43 -47h-75q5 54 36 88t81 34zM408 173v145q0 61 -30.5 99t-94.5 38q-59 0 -92 -35t-33 -102v-145q0 -67 32.5 -102.5t92.5 -35.5t92.5 35t32.5 103z M283 534q223 0 223 -216v-145q0 -217 -223 -217t-223 217v145q0 216 223 216z"/>
<glyph glyph-name="Korea1.18402" horiz-adv-x="568" unicode="ö" d="M226 700v-105h-104v105h104zM417 700v-105h-103v105h103zM408 173v145q0 61 -30.5 99t-94.5 38q-59 0 -92 -35t-33 -102v-145q0 -67 32.5 -102.5t92.5 -35.5t92.5 35t32.5 103zM283 534q223 0 223 -216v-145q0 -217 -223 -217t-223 217v145q0 216 223 216z"/>
<glyph glyph-name="Korea1.18403" horiz-adv-x="555" unicode="ù" d="M174 730h110l80 -146h-41q-22 0 -34 6t-24 22zM486 -30h-219q-107 0 -154.5 44.5t-47.5 153.5v352h97v-352q0 -71 22.5 -95t82.5 -24h121v471h98v-550z"/>
<glyph glyph-name="Korea1.18404" horiz-adv-x="555" unicode="ú" d="M254 730h110l-91 -118q-12 -16 -24 -22t-34 -6h-41zM486 -30h-219q-107 0 -154.5 44.5t-47.5 153.5v352h97v-352q0 -71 22.5 -95t82.5 -24h121v471h98v-550z"/>
<glyph glyph-name="Korea1.18405" horiz-adv-x="555" unicode="û" d="M270 659l-65 -78h-98l114 135h97l113 -135h-98zM486 -30h-219q-107 0 -154.5 44.5t-47.5 153.5v352h97v-352q0 -71 22.5 -95t82.5 -24h121v471h98v-550z"/>
<glyph glyph-name="Korea1.18406" horiz-adv-x="555" unicode="ü" d="M225 700v-105h-104v105h104zM416 700v-105h-103v105h103zM486 -30h-219q-107 0 -154.5 44.5t-47.5 153.5v352h97v-352q0 -71 22.5 -95t82.5 -24h121v471h98v-550z"/>
<glyph glyph-name="Korea1.18407" horiz-adv-x="555" unicode="ý" d="M245 730h110l-91 -118q-12 -16 -24 -22t-34 -6h-41zM315 -239h-225v32q0 28 13.5 39.5t47.5 11.5h164q41 0 57 16.5t16 48.5v70q-57 -6 -153 -9h-10q-81 0 -121 46t-40 130v374h98v-373q0 -50 16.5 -73.5t57.5 -23.5h3q49 1 149 10v460h98v-612q0 -67 -42 -107t-129 -40z "/>
</font>
</defs>
</svg>
