<?xml version="1.0" encoding="UTF-8" standalone="no"?>
<!DOCTYPE svg  PUBLIC '-//W3C//DTD SVG 1.1//EN'  'http://www.w3.org/Graphics/SVG/1.1/DTD/svg11.dtd'>
<svg xmlns="http://www.w3.org/2000/svg">
<defs>
<font id="ModernH-LightA" horiz-adv-x="520">
<font-face underline-position="-100" font-weight="200" descent="-200" panose-1="2 0 3 3 0 0 0 0 0 0" units-per-em="1000" unicode-range="U+0021-00FE" bbox="-37 -240 952 955" x-height="520" underline-thickness="50" font-family="ModernH" ascent="800" cap-height="716"/>
<missing-glyph horiz-adv-x="1000"/>
<glyph glyph-name=".notdef" horiz-adv-x="1000"/>
<glyph glyph-name=".null" horiz-adv-x="0"/>
<glyph glyph-name="nonmarkingreturn" horiz-adv-x="333"/>
<glyph glyph-name="Korea1.2" horiz-adv-x="300" unicode="!" d="M194 69v-99h-91v99h91zM181 201h-63l-18 539h100z"/>
<glyph glyph-name="Korea1.3" horiz-adv-x="422" unicode='&quot;' d="M250 751h83l-15 -271h-20q-16 0 -25.5 10.5t-10.5 24.5zM76 751h84l-14 -271h-22q-15 0 -24 10.5t-10 24.5z"/>
<glyph glyph-name="Korea1.4" horiz-adv-x="698" unicode="#" d="M268 459l-34 -210h196l35 210h-197zM28 187v62h128l35 210h-108v62h118l34 209h78l-35 -209h197l34 209h78l-35 -209h116v-35q0 -15 -6.5 -21t-21.5 -6h-98l-34 -210h105v-35q0 -15 -6.5 -21t-21.5 -6h-87l-32 -196q-6 -35 -32 -35h-51l37 231h-196l-32 -196 q-6 -35 -32 -35h-51l37 231h-118z"/>
<glyph glyph-name="Korea1.5" horiz-adv-x="524" unicode="$" d="M121 523q0 -43 23.5 -69t79.5 -53v220q-103 -11 -103 -98zM408 169q0 37 -21.5 65t-85.5 57v-226q107 15 107 104zM224 760h77v-74h154v-25q0 -24 -11 -31t-40 -7h-103v-258l40 -18q76 -36 110.5 -78.5t34.5 -98.5q0 -150 -185 -168v-75h-47q-17 0 -23.5 8.5t-6.5 27.5 v37h-184v25q0 20 11 28.5t41 8.5h132v263l-54 24q-128 57 -128 174q0 148 182 161v76z"/>
<glyph glyph-name="Korea1.6" horiz-adv-x="855" unicode="%" d="M40 538q0 79 41.5 123t118.5 44q75 0 117 -44.5t42 -122.5q0 -77 -42 -121.5t-117 -44.5q-78 0 -119 43t-41 123zM118 538q0 -49 17.5 -76.5t64.5 -27.5q46 0 63 27.5t17 76.5t-17 76.5t-63 27.5q-47 0 -64.5 -27.5t-17.5 -76.5zM556 716h82l-332 -718q-13 -28 -44 -28 h-51zM491 144q0 79 41.5 123t118.5 44q76 0 118 -44t42 -123t-42 -122.5t-118 -43.5q-78 0 -119 43t-41 123zM569 144q0 -49 18 -76.5t64 -27.5q47 0 64 27.5t17 76.5t-17 77t-64 28q-82 0 -82 -105z"/>
<glyph glyph-name="Korea1.7" horiz-adv-x="693" unicode="&amp;" d="M674 -30h-90l-63 70q-82 -84 -236 -84q-124 0 -186 56t-62 135q0 102 108 179l76 52l-53 63q-20 24 -31.5 40t-22 42t-10.5 53q0 68 50 111t147 43q85 0 140.5 -43.5t55.5 -113.5q0 -87 -79 -145l-92 -67l190 -208q32 60 34 150l71 -8q-5 -114 -57 -196zM475 93l-209 232 l-77 -54q-73 -51 -73 -125q0 -58 47.5 -92t121.5 -34q58 0 110 18.5t80 54.5zM281 415l82 56q26 18 40.5 46t14.5 56q0 43 -31.5 68t-85.5 25q-119 0 -119 -91q0 -40 36 -83z"/>
<glyph glyph-name="Korea1.8" horiz-adv-x="268" unicode="&apos;" d="M94 751h82l-14 -271h-20q-16 0 -25 10.5t-10 24.5z"/>
<glyph glyph-name="Korea1.9" horiz-adv-x="330" unicode="(" d="M169 194q8 -65 38.5 -121.5t79.5 -87.5l-39 -46q-63 36 -104.5 105.5t-50.5 150.5q-8 75 -8 158q0 95 8 158q22 168 156 252l38 -43q-96 -62 -118 -208q-8 -60 -8 -159q0 -98 8 -159z"/>
<glyph glyph-name="Korea1.10" horiz-adv-x="330" unicode=")" d="M182 194q8 61 8 159q0 99 -8 159q-22 146 -118 208l38 43q134 -84 156 -252q8 -63 8 -158q0 -83 -8 -158q-9 -81 -50.5 -150.5t-104.5 -105.5l-39 46q49 31 79.5 87.5t38.5 121.5z"/>
<glyph glyph-name="Korea1.11" horiz-adv-x="559" unicode="*" d="M463 372l-152 103l17 -180h-80l16 179l-154 -101l-47 77l178 71l-176 85l44 74l155 -117l-17 188h78l-14 -186l153 108l41 -75l-170 -78l170 -79z"/>
<glyph glyph-name="Korea1.12" horiz-adv-x="595" unicode="+" d="M337 582v-205h204v-63h-204v-210h-80v210h-202v63h202v205h80z"/>
<glyph glyph-name="Korea1.13" horiz-adv-x="237" unicode="," d="M117 -30h-51v114h104v-119q0 -93 -81 -132l-22 29q50 32 50 83v25z"/>
<glyph glyph-name="Korea1.14" horiz-adv-x="546" unicode="-" d="M66 313v64h415v-64h-415z"/>
<glyph glyph-name="Korea1.15" horiz-adv-x="237" unicode="." d="M163 84v-114h-90v114h90z"/>
<glyph glyph-name="Korea1.16" horiz-adv-x="472" unicode="/" d="M342 751h80l-286 -803h-79z"/>
<glyph glyph-name="Korea1.17" d="M259 730q57 0 97 -16.5t65 -45.5t39.5 -78.5t19.5 -106t5 -137.5q0 -212 -49.5 -301t-176.5 -89q-129 0 -176.5 92t-47.5 298q0 98 9 164t33 118.5t69 77t113 24.5zM259 20q34 0 59 9.5t41 31.5t26 46.5t14.5 66.5t5.5 77.5t1 94.5q0 57 -1 91t-5.5 76t-14 65.5t-25.5 46 t-41 32t-60 9.5q-33 0 -57 -10t-40 -31t-26 -46.5t-15 -65t-6.5 -76.5t-1.5 -91q0 -56 1.5 -94t6.5 -78.5t15 -66t26 -47t40 -31t57 -9.5z" unicode="0"/>
<glyph glyph-name="Korea1.18" d="M331 687v-717h-36q-23 0 -33 12t-10 39v632h-125v63h175q29 0 29 -29z" unicode="1"/>
<glyph glyph-name="Korea1.19" d="M431 -30h-322q-32 0 -45.5 11t-13.5 43v97q0 78 65 124l195 144q78 56 78 147q0 60 -43 95.5t-115 35.5t-166 -25v64q90 24 166 24q106 0 171.5 -51t65.5 -138v-5q-1 -122 -110 -198l-189 -140q-39 -27 -39 -83v-82h347v-22q0 -41 -45 -41z" unicode="2"/>
<glyph glyph-name="Korea1.20" d="M221 730q108 0 171 -47.5t63 -142.5v-6q-1 -64 -28.5 -110.5t-77.5 -65.5q63 -18 93.5 -65t30.5 -111q0 -226 -257 -226h-11q-76 0 -152 14v28q0 33 32 33q1 0 4 -0.5t5 -0.5q50 -9 112 -9q93 0 141 33.5t48 121.5q0 81 -40.5 114t-124.5 33h-112q-11 0 -15 3.5t-4 14.5 v45h131q78 0 112 38t34 112q0 63 -39 97t-117 34q-79 0 -151 -20v62q86 21 152 21z" unicode="3"/>
<glyph glyph-name="Korea1.21" d="M359 657l-261 -486h261v486zM468 109h-34v-139h-35q-22 0 -31 12t-9 39v88h-340v72l269 494q12 22 26 31.5t40 9.5h80v-545h66v-29q0 -33 -32 -33z" unicode="4"/>
<glyph glyph-name="Korea1.22" d="M228 352h-161v364h382v-30q0 -19 -9 -26t-28 -7h-266v-238h82q124 0 181 -57t57 -171q0 -231 -250 -231q-66 0 -159 14v29q0 29 33 29q8 0 11 -1q71 -7 113 -8h9q165 0 165 169q0 164 -160 164z" unicode="5"/>
<glyph glyph-name="Korea1.23" d="M401 174v52q0 79 -33.5 113.5t-100.5 34.5q-74 0 -111 -34t-37 -109v-58q0 -79 33 -114.5t111 -35.5q138 0 138 151zM442 708v-33q0 -28 -30 -28q-22 0 -61 2.5t-55 2.5q-48 0 -83 -15t-53 -35t-27.5 -50.5t-11.5 -51t-2 -47.5v-79q50 66 150 66q102 0 154.5 -53.5 t52.5 -146.5v-79q0 -99 -55.5 -152t-157.5 -53q-104 0 -161.5 53t-57.5 152v280q0 135 57.5 205t193.5 70q64 0 147 -8z" unicode="6"/>
<glyph glyph-name="Korea1.24" d="M472 694v-31q0 -24 -11 -51l-224 -614q-13 -28 -37 -28h-49l249 683h-355v63h402q25 0 25 -22z" unicode="7"/>
<glyph glyph-name="Korea1.25" d="M261 -44q-109 0 -174 53t-65 156q0 78 24.5 126.5t80.5 77.5q-87 40 -87 161q0 102 60 151t159 49t160.5 -49.5t61.5 -149.5q0 -54 -23 -99.5t-70 -64.5q61 -25 85.5 -73.5t24.5 -122.5q0 -100 -59 -157.5t-178 -57.5zM259 337q-158 0 -158 -162q0 -75 40.5 -115 t119.5 -40q85 0 122 43.5t37 109.5q0 82 -37 123t-124 41zM258 394q144 0 144 137q0 135 -142 135t-142 -135q0 -137 140 -137z" unicode="8"/>
<glyph glyph-name="Korea1.26" d="M119 512v-52q0 -79 33.5 -113.5t100.5 -34.5q74 0 111 34t37 109v58q0 79 -33 114.5t-111 35.5q-138 0 -138 -151zM78 -22v33q0 28 30 28q22 0 61 -2.5t55 -2.5q48 0 83 15t53 35t27.5 50.5t11.5 51t2 47.5v79q-50 -66 -150 -66q-102 0 -154.5 53.5t-52.5 146.5v79 q0 99 55.5 152t157.5 53q104 0 161.5 -53t57.5 -152v-280q0 -135 -57.5 -205t-193.5 -70q-64 0 -147 8z" unicode="9"/>
<glyph glyph-name="Korea1.27" horiz-adv-x="237" unicode=":" d="M163 598v-100h-90v100h90zM163 190v-100h-90v100h90z"/>
<glyph glyph-name="Korea1.28" horiz-adv-x="238" unicode=";" d="M167 598v-100h-90v100h90zM83 195h85l-82 -246h-27q-17 0 -17 20q0 7 1 12z"/>
<glyph glyph-name="Korea1.29" horiz-adv-x="500" unicode="&lt;" d="M420 69l-56 -49l-285 320l286 318l55 -48l-244 -270z"/>
<glyph glyph-name="Korea1.30" horiz-adv-x="573" unicode="=" d="M79 442v63h415v-63h-415zM79 202v63h415v-63h-415z"/>
<glyph glyph-name="Korea1.31" horiz-adv-x="500" unicode="&gt;" d="M135 20l-56 49l244 271l-244 270l55 48l286 -318z"/>
<glyph glyph-name="Korea1.32" horiz-adv-x="519" unicode="?" d="M272 69v-99h-90v99h90zM267 177h-79v51q0 92 39 118l94 65q73 50 73 133q0 61 -43.5 97t-121.5 36q-77 0 -181 -28l-5 62q93 29 184 29q111 0 178.5 -51t67.5 -144q0 -112 -82 -169l-91 -64q-23 -16 -28 -33.5t-5 -54.5v-47z"/>
<glyph glyph-name="Korea1.33" horiz-adv-x="917" unicode="@" d="M442 352q-50 0 -72.5 -15t-22.5 -54v-40q0 -39 22.5 -55t72.5 -16h120v173q-61 7 -120 7zM476 763q196 0 299.5 -101.5t103.5 -271.5q0 -117 -68.5 -199t-172.5 -82h-216q-70 0 -112.5 35t-42.5 91v51q0 128 160 128q62 0 135 -7v51q0 34 -16 49.5t-60 15.5h-144 q-22 0 -29.5 7t-7.5 25v31h195q75 0 108 -36t33 -103v-269q67 1 112.5 67t45.5 144q0 143 -78.5 227t-247.5 84q-172 0 -265 -100.5t-93 -255.5q0 -158 87.5 -249.5t271.5 -91.5q82 0 184 29l15 -42q5 -16 -7 -20q-103 -32 -208 -32q-206 0 -314 111.5t-108 296.5 q0 186 115 301.5t325 115.5z"/>
<glyph glyph-name="Korea1.34" horiz-adv-x="644" unicode="A" d="M454 259l-132 405l-131 -405h263zM395 194h-225l-71 -224h-82l251 746h79q11 0 23 -9.5t16 -20.5l242 -716h-80l-86 264q-26 -40 -67 -40z"/>
<glyph glyph-name="Korea1.35" horiz-adv-x="627" unicode="B" d="M358 324h-208v-291h207q67 0 102 34t35 87v47q0 54 -33.5 88.5t-102.5 34.5zM359 654h-209v-267h209q63 0 88.5 34t25.5 82v40q0 48 -30 79.5t-84 31.5zM73 716h285q95 0 143.5 -46t48.5 -122v-46q0 -50 -20 -89.5t-58 -56.5q49 -16 74.5 -53.5t25.5 -87.5v-66 q0 -90 -60.5 -134.5t-153.5 -44.5h-285v746z"/>
<glyph glyph-name="Korea1.36" horiz-adv-x="563" unicode="C" d="M527 33v-21q0 -42 -57 -42h-215q-86 0 -140 51.5t-54 136.5v374q0 86 57.5 135t160.5 49h238v-19q0 -21 -11.5 -32t-44.5 -11h-179q-143 0 -143 -136v-353q0 -56 31.5 -94t88.5 -38h268z"/>
<glyph glyph-name="Korea1.37" horiz-adv-x="648" unicode="D" d="M343 654h-192v-621h192q77 0 121 38t44 105v332q0 71 -43 108.5t-122 37.5zM74 716h269q120 0 181 -57t61 -151v-332q0 -93 -61.5 -149.5t-180.5 -56.5h-269v746z"/>
<glyph glyph-name="Korea1.38" horiz-adv-x="582" unicode="E" d="M494 -30h-420v746h452v-16q0 -24 -9 -35t-36 -11h-329v-256h341v-19q0 -21 -9 -32t-35 -11h-297v-303h386v-20q0 -43 -44 -43z"/>
<glyph glyph-name="Korea1.39" horiz-adv-x="561" unicode="F" d="M454 336h-302v-366h-34q-24 0 -34 11t-10 37v698h464v-18q0 -44 -49 -44h-337v-256h352v-19q0 -43 -50 -43z"/>
<glyph glyph-name="Korea1.40" horiz-adv-x="655" unicode="G" d="M275 716h298v-17q0 -24 -11.5 -34.5t-41.5 -10.5h-245q-57 0 -93.5 -33.5t-36.5 -92.5v-367q0 -56 34 -92t96 -36h125q53 0 82.5 34t29.5 85v137q0 18 -7 24t-24 6h-110q-27 0 -38.5 7.5t-11.5 29.5v26h203q36 0 51 -17t15 -53v-160q0 -89 -51 -135.5t-138 -46.5h-126 q-95 0 -151.5 49.5t-56.5 142.5v366q0 88 59 138t149 50z"/>
<glyph glyph-name="Korea1.41" horiz-adv-x="663" unicode="H" d="M152 716v-319h356v319h78v-746h-33q-24 0 -34.5 10.5t-10.5 35.5v357q-24 -38 -77 -38h-279v-365h-34q-23 0 -33.5 10.5t-10.5 35.5v700h78z"/>
<glyph glyph-name="Korea1.42" horiz-adv-x="243" unicode="I" d="M84 716h79v-746h-35q-23 0 -33.5 10.5t-10.5 35.5v700z"/>
<glyph glyph-name="Korea1.43" horiz-adv-x="399" unicode="J" d="M62 33h64q62 0 90.5 27.5t28.5 94.5v561h79v-561q0 -94 -48 -139.5t-150 -45.5h-113v23q0 22 11 31t38 9z"/>
<glyph glyph-name="Korea1.44" horiz-adv-x="602" unicode="K" d="M74 716h78v-746h-35q-43 0 -43 47v699zM486 -8l-288 364l289 360h96l-289 -359l304 -387h-63q-33 0 -49 22z"/>
<glyph glyph-name="Korea1.45" horiz-adv-x="528" unicode="L" d="M152 716v-683h358v-20q0 -23 -9.5 -33t-33.5 -10h-393v746h78z"/>
<glyph glyph-name="Korea1.46" horiz-adv-x="879" unicode="M" d="M800 716v-746h-34q-23 0 -33.5 10.5t-10.5 34.5v572l-214 -396q-27 -48 -70 -48q-42 0 -69 47l-214 397v-617h-34q-44 0 -44 40v706h86l253 -475q12 -22 22 -22t22 22l254 475h86z"/>
<glyph glyph-name="Korea1.47" horiz-adv-x="660" unicode="N" d="M74 16v700h306q108 0 156.5 -40.5t48.5 -149.5v-556h-33q-45 0 -45 46v511q0 73 -28 100t-99 27h-228v-684h-34q-23 0 -33.5 10.5t-10.5 35.5z"/>
<glyph glyph-name="Korea1.48" horiz-adv-x="688" unicode="O" d="M549 272v143v15q0 232 -206 232q-108 0 -157 -61.5t-49 -168.5v-18v-143q0 -129 51 -188t155 -59q105 0 155.5 59t50.5 189zM343 730q142 0 213 -81.5t71 -234.5v-143q0 -153 -71 -234t-213 -81t-213 81.5t-71 234.5v142q0 153 71 234.5t213 81.5z"/>
<glyph glyph-name="Korea1.49" horiz-adv-x="607" unicode="P" d="M341 652h-190v-331h190q131 0 131 116v100q0 115 -131 115zM341 257h-190v-287h-33q-24 0 -34.5 10.5t-10.5 35.5v700h268q102 0 155.5 -42.5t53.5 -136.5v-100q0 -33 -6 -58.5t-25 -56t-64.5 -48t-113.5 -17.5z"/>
<glyph glyph-name="Korea1.50" horiz-adv-x="680" unicode="Q" d="M550 272v143q0 115 -49 178q-52 69 -157 69q-106 0 -157 -68q-49 -63 -49 -180v-143q0 -127 49.5 -187t156.5 -60t156.5 60t49.5 188zM344 730q141 0 212.5 -81.5t71.5 -234.5v-143q0 -180 -96 -258l98 -128h-45q-38 0 -59 26l-54 67q-53 -22 -128 -22q-142 0 -213 81.5 t-71 234.5v142q0 154 71 235t213 81z"/>
<glyph glyph-name="Korea1.51" horiz-adv-x="616" unicode="R" d="M363 652h-212v-286h212q123 0 123 117v57q0 112 -123 112zM352 302h-201v-332h-35q-23 0 -33 10.5t-10 35.5v700h290q102 0 151.5 -43t49.5 -117v-82q0 -59 -32.5 -104.5t-100.5 -60.5l157 -339h-84z"/>
<glyph glyph-name="Korea1.52" horiz-adv-x="559" unicode="S" d="M270 -30h-230v23q0 22 10.5 31t38.5 9h177q169 0 169 123q0 44 -28 76t-96 62l-133 59q-130 58 -130 187q0 82 57 129t170 47h213v-24q0 -23 -11.5 -30.5t-39.5 -7.5h-162q-148 0 -148 -114q0 -46 24.5 -75t79.5 -54l126 -58q89 -41 123 -84.5t34 -111.5 q0 -43 -14.5 -76.5t-38 -54t-56 -33.5t-65.5 -18t-70 -5z"/>
<glyph glyph-name="Korea1.53" horiz-adv-x="588" unicode="T" d="M256 16v638h-238v62h555v-18q0 -25 -9 -34.5t-38 -9.5h-192v-684h-34q-44 0 -44 46z"/>
<glyph glyph-name="Korea1.54" horiz-adv-x="667" unicode="U" d="M586 716v-746h-306q-108 0 -156.5 40.5t-48.5 150.5v555h78v-556q0 -73 28 -100t99 -27h228v683h78z"/>
<glyph glyph-name="Korea1.55" horiz-adv-x="633" unicode="V" d="M95 716l221 -681l222 681h82l-249 -746h-73q-34 0 -45 32l-240 714h82z"/>
<glyph glyph-name="Korea1.56" horiz-adv-x="903" unicode="W" d="M819 716h76l-174 -746h-62q-26 0 -41 14.5t-23 45.5l-140 515l-155 -575h-56q-56 0 -69 58l-161 688h77l156 -681l166 615h84l166 -615z"/>
<glyph glyph-name="Korea1.57" horiz-adv-x="629" unicode="X" d="M108 -30h-90l250 375l-246 371h86l204 -307l203 307h88l-245 -371l248 -375h-88l-206 309z"/>
<glyph glyph-name="Korea1.58" horiz-adv-x="644" unicode="Y" d="M356 267v-297h-33q-45 0 -45 46v252l-262 448h83l220 -380l222 380h85z"/>
<glyph glyph-name="Korea1.59" horiz-adv-x="610" unicode="Z" d="M45 716h510v-70l-443 -613h460v-42q0 -21 -23 -21h-516v75l440 609h-428v62z"/>
<glyph glyph-name="Korea1.60" horiz-adv-x="426" unicode="[" d="M353 -13v-63h-220v866h220v-63h-141v-740h141z"/>
<glyph glyph-name="Korea1.61" horiz-adv-x="920" unicode="\" d="M490 467l-25 98l-26 -98h51zM357 403h-185l85 -373zM758 403h-185l100 -373zM97 403h-88v64h73l-58 249h77l56 -249h217l49 183h84l49 -183h216l57 249h76l-59 -249h64v-64h-79l-101 -433h-61q-49 0 -64 60l-98 373h-84l-113 -433h-56q-55 0 -68 58z"/>
<glyph glyph-name="Korea1.62" horiz-adv-x="426" unicode="]" d="M79 -76v63h140v740h-140v63h219v-866h-219z"/>
<glyph glyph-name="Korea1.63" horiz-adv-x="585" unicode="^" d="M83 579l168 237h86l167 -237h-85l-125 178l-124 -178h-87z"/>
<glyph glyph-name="Korea1.64" horiz-adv-x="599" unicode="_" d="M103 -120v63h397v-63h-397z"/>
<glyph glyph-name="Korea1.65" horiz-adv-x="299" unicode="`" d="M62 800l78 36l105 -241l-19 -9q-7 -4 -16 -4q-19 0 -31 21z"/>
<glyph glyph-name="Korea1.66" horiz-adv-x="529" unicode="a" d="M232 261q-53 0 -76 -20.5t-23 -69.5v-54q0 -45 29.5 -64.5t69.5 -19.5h153v217q-82 11 -153 11zM464 373v-403h-233q-82 0 -129 36.5t-47 105.5v63q0 154 166 154h10q76 -1 154 -13v57q0 83 -94 83h-140q-33 0 -44 10t-11 30v24h195q173 0 173 -147z"/>
<glyph glyph-name="Korea1.67" horiz-adv-x="542" unicode="b" d="M154 456v-423h127q57 0 90 30.5t33 89.5v183q0 60 -32.5 90t-89.5 30h-128zM75 721h79v-201h127q99 0 150.5 -43.5t51.5 -129.5v-204q0 -173 -202 -173h-206v751z"/>
<glyph glyph-name="Korea1.68" horiz-adv-x="490" unicode="c" d="M262 33h187v-21q0 -20 -11 -31t-44 -11h-132q-89 0 -144.5 49t-55.5 132v185q0 83 55.5 133.5t144.5 50.5h183v-19q0 -22 -10.5 -33.5t-41.5 -11.5h-131q-59 0 -90 -30.5t-31 -89.5v-184q0 -54 32 -86.5t89 -32.5z"/>
<glyph glyph-name="Korea1.69" horiz-adv-x="538" unicode="d" d="M386 33v423h-128q-57 0 -89.5 -30t-32.5 -90v-183q0 -59 33 -89.5t90 -30.5h127zM386 721h79v-751h-206q-201 0 -201 173v204q0 173 201 173h127v201z"/>
<glyph glyph-name="Korea1.70" horiz-adv-x="537" unicode="e" d="M134 360v-84h238q19 0 24.5 6t5.5 24v54q0 52 -35.5 81.5t-100.5 29.5q-61 0 -96.5 -30t-35.5 -81zM242 33h218v-24q0 -20 -10.5 -29.5t-43.5 -9.5h-164q-84 0 -135.5 47t-51.5 126v196q0 99 59 147t152 48q96 0 155.5 -46t59.5 -128v-82q0 -33 -16 -49t-53 -16h-278v-70 q0 -51 31 -80.5t77 -29.5z"/>
<glyph glyph-name="Korea1.71" horiz-adv-x="421" unicode="f" d="M217 520h154v-28q0 -18 -15.5 -27t-35.5 -9h-103v-486h-34q-24 0 -34.5 11t-10.5 37v438h-110v64h110v70q0 65 28.5 98t104.5 33h122v-16q0 -47 -56 -47h-66q-54 0 -54 -61v-77z"/>
<glyph glyph-name="Korea1.72" horiz-adv-x="548" unicode="g" d="M138 347v-205q0 -61 34 -85t79 -24h148v423h-148q-56 0 -84.5 -30t-28.5 -79zM159 -176h157q41 0 62 22t21 59v65h-148q-90 0 -140.5 45t-50.5 129v204q0 84 51.5 128t139.5 44h227v-617q0 -60 -37.5 -101t-121.5 -41h-210v24q0 39 50 39z"/>
<glyph glyph-name="Korea1.73" horiz-adv-x="561" unicode="h" d="M315 456h-162v-486h-35q-23 0 -33.5 11t-10.5 37v703h79v-201h162q180 0 180 -162v-388h-33q-46 0 -46 48v339q0 99 -101 99z"/>
<glyph glyph-name="Korea1.74" horiz-adv-x="230" unicode="i" d="M72 664v57h83v-111h-24q-25 0 -42 14.5t-17 39.5zM74 520h79v-550h-33q-25 0 -35.5 11t-10.5 37v502z"/>
<glyph glyph-name="Korea1.75" horiz-adv-x="301" unicode="j" d="M148 -84v604h78v-604q0 -81 -36 -118t-112 -37h-89v23q0 20 12.5 30.5t31.5 10.5h45q43 0 56.5 21.5t13.5 69.5zM146 664v57h82v-111h-24q-25 0 -41.5 14.5t-16.5 39.5z"/>
<glyph glyph-name="Korea1.76" horiz-adv-x="525" unicode="k" d="M191 267l221 253h90l-224 -254l239 -296h-56q-31 0 -47 19zM75 18v703h78v-751h-33q-24 0 -34.5 11t-10.5 37z"/>
<glyph glyph-name="Korea1.77" horiz-adv-x="232" unicode="l" d="M73 721h79v-751h-35q-23 0 -33.5 11t-10.5 37v703z"/>
<glyph glyph-name="Korea1.78" horiz-adv-x="771" unicode="m" d="M535 456h-110v-486h-34q-24 0 -34.5 11t-10.5 37v438h-198v-486h-35q-23 0 -33.5 11t-10.5 37v502h466q86 0 126 -36.5t40 -115.5v-398h-36q-23 0 -33 11t-10 37v350q0 88 -87 88z"/>
<glyph glyph-name="Korea1.79" horiz-adv-x="558" unicode="n" d="M70 520h236q101 0 141.5 -38t40.5 -132v-380h-34q-24 0 -35 11t-11 37v332q0 62 -22 84t-80 22h-157v-486h-33q-24 0 -35 11t-11 37v502z"/>
<glyph glyph-name="Korea1.80" horiz-adv-x="562" unicode="o" d="M421 182v128q0 86 -31 121q-34 40 -110 40q-73 0 -107 -36.5t-34 -124.5v-128q0 -88 33.5 -125t107.5 -37t107.5 36t33.5 126zM280 534q111 0 165.5 -52.5t54.5 -171.5v-128q0 -119 -54.5 -172.5t-165.5 -53.5q-109 0 -164.5 53.5t-55.5 172.5v128q0 117 55.5 170.5 t164.5 53.5z"/>
<glyph glyph-name="Korea1.81" horiz-adv-x="539" unicode="p" d="M148 456v-423h132q118 0 118 117v188q0 118 -118 118h-132zM69 -176v696h211q197 0 197 -182v-188q0 -180 -197 -180h-132v-194h-34q-24 0 -34.5 11t-10.5 37z"/>
<glyph glyph-name="Korea1.82" horiz-adv-x="536" unicode="q" d="M391 33v423h-133q-117 0 -117 -118v-188q0 -117 117 -117h133zM469 -224h-33q-24 0 -34.5 11t-10.5 37v146h-133q-196 0 -196 180v188q0 182 196 182h211v-744z"/>
<glyph glyph-name="Korea1.83" horiz-adv-x="397" unicode="r" d="M145 387v-417h-34q-23 0 -33.5 11t-10.5 37v369q0 133 138 133h173v-13q0 -51 -62 -51h-111q-60 0 -60 -69z"/>
<glyph glyph-name="Korea1.84" horiz-adv-x="457" unicode="s" d="M223 520h166v-25q0 -39 -54 -39h-112q-49 0 -72.5 -21.5t-23.5 -55.5q0 -62 69 -83l92 -28q128 -39 128 -149q0 -71 -49.5 -110t-135.5 -39h-180v21q0 42 51 42h129q50 0 78 21.5t28 64.5q0 61 -66 83l-92 31q-67 23 -99 57t-32 89q0 56 44.5 98.5t130.5 42.5z"/>
<glyph glyph-name="Korea1.85" horiz-adv-x="346" unicode="t" d="M273 -30h-26q-76 0 -108 31.5t-32 101.5v353h-93v64h93v181h79v-181h134v-23q0 -41 -57 -41h-77v-353q0 -36 12.5 -53t48.5 -17h81v-22q0 -41 -55 -41z"/>
<glyph glyph-name="Korea1.86" horiz-adv-x="548" unicode="u" d="M479 -30h-216q-106 0 -152 39.5t-46 146.5v364h78v-364q0 -75 25.5 -99t94.5 -24h137v487h79v-550z"/>
<glyph glyph-name="Korea1.87" horiz-adv-x="496" unicode="v" d="M299 -30h-67q-37 0 -50 40l-171 510h75l163 -493l161 493h71z"/>
<glyph glyph-name="Korea1.88" horiz-adv-x="732" unicode="w" d="M654 520h71l-141 -550h-51q-38 0 -51 46l-117 379l-130 -425h-48q-25 0 -35 11.5t-17 37.5l-130 501h70l118 -472l134 449h75l136 -449z"/>
<glyph glyph-name="Korea1.89" horiz-adv-x="527" unicode="x" d="M100 -30h-85l202 276l-195 274h83l155 -221l156 221h85l-196 -274l203 -276h-84l-161 223z"/>
<glyph glyph-name="Korea1.90" horiz-adv-x="548" unicode="y" d="M313 -239h-222v24q0 24 11.5 34t40.5 10h170q48 0 67.5 19t19.5 57v75q-69 -7 -170 -10h-7q-80 0 -119.5 45t-39.5 128v377h79v-376q0 -57 19.5 -84t68.5 -27h3q65 1 166 10v477h79v-616q0 -65 -41 -104t-125 -39z"/>
<glyph glyph-name="Korea1.91" horiz-adv-x="491" unicode="z" d="M110 34h338v-38q0 -26 -27 -26h-385v71l322 415h-308v64h385v-70z"/>
<glyph glyph-name="Korea1.92" horiz-adv-x="427" unicode="{" d="M362 -16v-57h-62q-113 0 -113 121v201q0 35 -24.5 54.5t-63.5 22.5v58q88 5 88 76v205q0 126 118 126h57v-57q-53 -2 -77 -17t-24 -53v-198q0 -77 -52 -111q52 -39 52 -112v-190q0 -40 22.5 -54t78.5 -15z"/>
<glyph glyph-name="Korea1.93" horiz-adv-x="312" unicode="|" d="M128 767h69v-819h-69v819z"/>
<glyph glyph-name="Korea1.94" horiz-adv-x="428" unicode="}" d="M75 -73v57q57 1 79.5 14.5t22.5 54.5v190q0 74 52 112q-52 33 -52 111v198q0 38 -24.5 53t-77.5 17v57h57q119 0 119 -126v-205q0 -71 88 -76v-58q-40 -3 -64 -22.5t-24 -54.5v-201q0 -121 -114 -121h-62z"/>
<glyph glyph-name="Korea1.95" horiz-adv-x="724" unicode="~" d="M601 414h71q0 -81 -40 -133t-124 -52q-94 0 -165 87q-30 38 -55 54t-55 16q-44 0 -69 -32t-29 -88h-73q6 82 49.5 132.5t119.5 50.5q54 0 92 -24t79 -76q44 -56 104 -56q94 0 95 121z"/>
<glyph glyph-name="Korea1.98" horiz-adv-x="866" unicode="©" d="M433 154h145v-21q0 -20 -11 -31.5t-44 -11.5h-90q-89 0 -144.5 49.5t-55.5 132.5v135q0 83 55.5 133t144.5 50h141v-18q0 -22 -10 -33.5t-42 -11.5h-89q-59 0 -90 -30.5t-31 -89.5v-134q0 -54 32 -86.5t89 -32.5zM98 347q0 -147 93 -240t243 -93q148 0 241 92.5t93 240.5 q0 147 -92.5 239t-241.5 92t-242.5 -92.5t-93.5 -238.5zM38 347q0 173 111.5 282.5t285.5 109.5t285 -109.5t111 -282.5q0 -174 -111 -283.5t-285 -109.5t-285.5 109.5t-111.5 283.5z"/>
<glyph glyph-name="Korea1.104" horiz-adv-x="315" unicode="·" d="M112 411h91v-100h-91v100z"/>
<glyph glyph-name="Korea1.107" horiz-adv-x="666" unicode="¨" d="M454 686h91v-100h-91v100zM122 686h91v-100h-91v100z"/>
<glyph glyph-name="Korea1.109" horiz-adv-x="321" unicode="­" d="M22 398h276v-64h-276v64z"/>
<glyph glyph-name="Korea1.130" horiz-adv-x="609" unicode="±" d="M535 -30h-467v63h467v-63zM260 603h80v-195h204v-63h-204v-199h-80v199h-202v63h202v195z"/>
<glyph glyph-name="Korea1.131" horiz-adv-x="571" unicode="×" d="M285 286l-159 -158l-47 46l159 160l-158 158l47 48l158 -159l159 159l46 -47l-158 -159l159 -159l-47 -47z"/>
<glyph glyph-name="Korea1.132" horiz-adv-x="495" unicode="÷" d="M199 580h90v-100h-90v100zM199 201h90v-99h-90v99zM465 310h-436v64h436v-64z"/>
<glyph glyph-name="Korea1.138" horiz-adv-x="357" unicode="°" d="M100 598q0 -35 21 -55.5t56 -20.5t57 21t22 55t-22 55.5t-57 21.5t-56 -21.5t-21 -55.5zM48 598q0 57 36.5 92t93.5 35t94 -35.5t37 -91.5q0 -57 -37 -92t-94 -35t-93.5 35t-36.5 92z"/>
<glyph glyph-name="Korea1.143" horiz-adv-x="920" unicode="¢" d="M341 336v-184q0 -28 9 -51l126 355h-14q-59 0 -90 -30.5t-31 -89.5zM499 520l43 121h80l-44 -121h67v-19q0 -22 -10.5 -33.5t-41.5 -11.5h-38l-147 -414q22 -9 54 -9h187v-21q0 -20 -11 -31t-44 -11h-132q-40 0 -76 11l-26 -73h-79l39 109q-58 49 -58 134v185 q0 83 55.5 133.5t144.5 50.5h37z"/>
<glyph glyph-name="Korea1.144" horiz-adv-x="920" unicode="£" d="M205 267v62h60q-5 52 -5 81q0 34 5 61q14 85 70.5 132.5t137.5 47.5h12q87 -5 148 -66q17 -21 31 -55.5t16 -58.5h-80q0 36 -33.5 71.5t-88.5 35.5q-45 0 -78.5 -25.5t-44.5 -64.5q-8 -26 -8 -87q0 -31 3 -72h233v-62h-227q3 -30 3 -62q0 -117 -30 -185h207h22 q36 0 59.5 8.5t36.5 38.5q8 22 8 52h71q0 -35 -7 -57q-10 -38 -28.5 -62t-48.5 -34t-58 -13t-75 -3h-340v71h68q12 20 23 75t11 113q0 20 -4 58h-69z"/>
<glyph glyph-name="Korea1.145" horiz-adv-x="920" unicode="¥" d="M517 310h196v-64h-222v-69h222v-64h-222v-143h-33q-45 0 -45 46v97h-229v64h229v69h-229v64h204l-237 406h83l220 -380l222 380h85z"/>
<glyph glyph-name="Korea1.155" horiz-adv-x="457" unicode="§" d="M330 323q0 57 -66 79l-15 5h-33q-49 0 -72.5 -22.5t-23.5 -57.5q0 -62 69 -83l36 -11q48 0 76.5 23.5t28.5 66.5zM216 716h166v-25q0 -38 -54 -38h-112q-49 0 -72.5 -21.5t-23.5 -55.5q0 -60 69 -81l92 -28q128 -39 128 -144q0 -88 -78 -127q78 -40 78 -122 q0 -72 -50 -112.5t-135 -40.5h-180v21q0 42 51 42h129q49 0 77.5 23t28.5 67q0 29 -15 46t-51 29l-93 32q-66 23 -98 57t-32 89q0 38 21 72t62 53q-83 41 -83 124q0 55 45 97.5t130 42.5z"/>
<glyph glyph-name="Korea1.176" horiz-adv-x="920" unicode="«" d="M762 -29l-475 321l479 309l35 -50l-403 -261l398 -268zM557 -29l-474 321l479 309l35 -50l-404 -261l399 -268z"/>
<glyph glyph-name="Korea1.177" horiz-adv-x="920" unicode="»" d="M488 290l-403 261l34 51l479 -310l-474 -321l-34 51zM692 290l-403 261l35 51l479 -310l-474 -321l-35 51z"/>
<glyph glyph-name="Korea1.194" horiz-adv-x="920" unicode="¬" d="M36 117v63h826v-326h-72v263h-754z"/>
<glyph glyph-name="Korea1.199" horiz-adv-x="310" unicode="´" d="M74 584l80 146h87l-91 -121q-12 -15 -22 -20t-29 -5h-25z"/>
<glyph glyph-name="Korea1.206" horiz-adv-x="316" unicode="¸" d="M116 -103l27 80h61l-14 -43q77 -12 77 -79q0 -88 -135 -88q-32 0 -62 5l7 46q31 -3 45 -3q83 0 83 38q0 22 -17.5 31.5t-71.5 12.5z"/>
<glyph glyph-name="Korea1.208" horiz-adv-x="300" unicode="¡" d="M103 716h91v-100h-91v100zM100 -54l18 539h63l19 -539h-100z"/>
<glyph glyph-name="Korea1.209" horiz-adv-x="528" unicode="¿" d="M334 616h-90v99h90v-99zM249 461v47h79v-51q0 -92 -39 -118l-94 -65q-73 -50 -73 -133q0 -61 43.5 -97t121.5 -36q77 0 181 28l5 -62q-93 -29 -184 -29q-111 0 -178.5 51t-67.5 144q0 112 82 169l91 64q23 16 28 33.5t5 54.5z"/>
<glyph glyph-name="Korea1.214" horiz-adv-x="549" unicode="¤" d="M421 261v39q0 68 -34.5 109.5t-107.5 41.5q-67 0 -104 -39t-37 -112v-39q0 -73 36.5 -112.5t104.5 -39.5t105 38.5t37 113.5zM279 509q85 0 137 -33l50 51l48 -48l-50 -50q31 -51 31 -129v-37q0 -79 -31 -130l51 -50l-49 -48l-49 50q-52 -34 -138 -34q-94 0 -146 39 l-54 -55l-47 48l57 59q-25 48 -25 119v39q0 72 26 119l-58 61l47 48l56 -58q54 39 144 39z"/>
<glyph glyph-name="Korea1.244" horiz-adv-x="525" unicode="¶" d="M211 -110v430q-71 8 -126.5 58.5t-55.5 135.5v9q3 92 59.5 142.5t150.5 50.5h214v-873h-27q-24 0 -34.5 11t-10.5 36v762h-98v-809h-26q-46 0 -46 47z"/>
<glyph glyph-name="Korea1.666" horiz-adv-x="982" unicode="Æ" d="M489 654h-85l-174 -394h259v394zM908 -30h-419v248q-25 -23 -67 -23h-221l-99 -225h-85l331 746h592v-16q0 -24 -9 -35t-36 -11h-328v-256h340v-19q0 -21 -9 -32t-35 -11h-296v-303h385v-20q0 -43 -44 -43z"/>
<glyph glyph-name="Korea1.667" horiz-adv-x="711" unicode="Ð" d="M406 654h-202v-277h176v-21q0 -42 -55 -42h-121v-281h202q73 0 114 35.5t41 97.5v352q0 67 -40.5 101.5t-114.5 34.5zM127 314h-96v63h96v339h279q114 0 173 -54.5t59 -143.5v-352q0 -89 -59 -142.5t-173 -53.5h-279v344z"/>
<glyph glyph-name="Korea1.668" horiz-adv-x="374" unicode="ª" d="M162 527q-29 0 -42.5 -11t-13.5 -38v-38q0 -44 56 -44h90v125q-54 6 -90 6zM312 618v-276h-150q-55 0 -85.5 24.5t-30.5 70.5v43q0 102 112 102h4q24 0 90 -8v44q0 45 -54 45h-86q-24 0 -32 7.5t-8 23.5v22h126q114 0 114 -98z"/>
<glyph glyph-name="Korea1.673" horiz-adv-x="688" unicode="Ø" d="M344 662q-99 0 -152.5 -69t-53.5 -179v-143q0 -130 58 -191l233 565q-37 17 -85 17zM550 272v143q0 121 -61 186l-233 -562q39 -15 88 -15q206 0 206 248zM458 713l28 68h78l-42 -101q106 -77 106 -266v-143q0 -153 -70.5 -234t-213.5 -81q-64 0 -115 17l-31 -75h-77 l44 108q-105 77 -105 266v142q0 153 71 234.5t213 81.5q63 0 114 -17z"/>
<glyph glyph-name="Korea1.675" horiz-adv-x="371" unicode="º" d="M265 476v108q0 88 -81 88q-82 0 -82 -88v-108q0 -90 82 -90q81 0 81 90zM184 726q143 0 143 -142v-108q0 -141 -143 -141q-144 0 -144 141v108q0 142 144 142z"/>
<glyph glyph-name="Korea1.676" horiz-adv-x="600" unicode="Þ" d="M320 485h-168v-290h170q87 0 120.5 37t33.5 111q0 82 -37 112t-119 30zM152 132v-162h-32q-45 0 -45 46v700h77v-167h160q121 0 180.5 -45t59.5 -158q0 -115 -56.5 -164.5t-175.5 -49.5h-168z"/>
<glyph glyph-name="Korea1.748" horiz-adv-x="800" unicode="½" d="M710 -43h-168q-22 0 -30 7t-8 29v54q0 44 36 69l106 73q35 24 35 71q0 26 -21 42.5t-55 16.5q-38 0 -97 -11v49q62 12 98 12q56 0 93 -29t37 -80q0 -68 -55 -107l-105 -74q-17 -12 -17 -39v-34h180v-20q0 -29 -29 -29zM192 693v-377h-26q-29 0 -29 34v317h-63v49h96 q22 0 22 -23zM103 -44l449 760h72l-449 -760h-72z"/>
<glyph glyph-name="Korea1.751" horiz-adv-x="800" unicode="¼" d="M123 -44l449 760h72l-449 -760h-72zM192 693v-377h-26q-29 0 -29 34v317h-63v49h96q22 0 22 -23zM634 77v228l-145 -228h145zM701 29h-13v-73h-26q-28 0 -28 37v36h-200v52l153 248q16 27 44 27h57v-279h38v-24q0 -24 -25 -24z"/>
<glyph glyph-name="Korea1.752" horiz-adv-x="800" unicode="¾" d="M156 730q58 0 96 -26.5t38 -82.5q0 -31 -14.5 -57t-39.5 -37q63 -25 63 -94q0 -124 -134 -124h-10q-60 2 -96 9v21q0 25 23 25h6q30 -5 67 -5q44 0 66 15t22 55q0 71 -84 71h-60q-16 0 -16 18v32h76q75 0 75 72q0 28 -21.5 42.5t-57.5 14.5q-34 0 -89 -10l-2 47 q58 14 92 14zM165 -44l449 760h72l-449 -760h-72zM653 75v230l-145 -230h145zM721 27h-14v-71h-26q-28 0 -28 37v34h-200v52l154 250q16 27 43 27h57v-281h39v-24q0 -24 -25 -24z"/>
<glyph glyph-name="Korea1.757" horiz-adv-x="860" unicode="æ" d="M462 354v-79h235q19 0 24.5 6t5.5 24v45q0 53 -35 87t-99 34q-58 0 -94.5 -33.5t-36.5 -83.5zM233 260q-53 0 -76 -20.5t-23 -69.5v-53q0 -45 29.5 -64.5t69.5 -19.5h66q35 0 59.5 23.5t24.5 57.5v135q-82 11 -150 11zM570 33h216v-24q0 -20 -10.5 -29.5t-43.5 -9.5h-162 q-49 0 -80 12.5t-62 42.5q-48 -55 -110 -55h-86q-82 0 -129.5 36.5t-47.5 105.5v62q0 154 167 154h10q73 -1 151 -13v58q0 83 -94 83h-139q-33 0 -44 10t-11 30v24h194q89 0 139 -47q65 61 165 61q95 0 154 -49.5t59 -134.5v-73q0 -33 -16 -49t-53 -16h-275v-74 q0 -48 31 -76.5t77 -28.5z"/>
<glyph glyph-name="Korea1.759" horiz-adv-x="578" unicode="ð" d="M137 279v-108q0 -147 147 -147q83 0 118.5 34t35.5 112v113q0 75 -39.5 107t-118.5 32q-72 0 -107.5 -32.5t-35.5 -110.5zM349 719l89 81l47 -48l-67 -60q95 -60 95 -221v-313q0 -97 -59 -149t-164 -52h-6q-108 2 -165.5 52.5t-57.5 148.5v135q0 93 55 144.5t162 51.5 q47 0 91 -14.5t69 -40.5v48q0 118 -75 159l-114 -103l-47 47l86 78q-28 2 -43 2q-17 0 -99 -5h-4q-26 0 -26 28v34q69 8 124 8q61 0 109 -11z"/>
<glyph glyph-name="Korea1.766" horiz-adv-x="558" unicode="ø" d="M280 471q-67 0 -104 -39t-37 -112v-148q0 -68 30 -106l159 399q-21 6 -48 6zM421 172v148q0 67 -32 106l-159 -400q22 -6 50 -6q68 0 104.5 38.5t36.5 113.5zM352 527l36 89h77l-46 -115q81 -50 81 -181v-148q0 -216 -220 -216q-40 0 -75 8l-37 -93h-76l47 120 q-79 51 -79 181v148q0 214 220 214q34 0 72 -7z"/>
<glyph glyph-name="Korea1.768" horiz-adv-x="622" unicode="ß" d="M153 506v-536h-32q-24 0 -35 10.5t-11 36.5v493q0 118 53 169t161 51q87 0 141 -41.5t54 -101.5q0 -62 -36 -123q-42 -70 -42 -92q0 -19 15.5 -39.5t65.5 -54.5q103 -72 103 -163q0 -69 -50 -114t-134 -45q-111 0 -165 73l53 47q19 -24 49.5 -38.5t61.5 -14.5q45 0 74 26 t29 65q0 28 -15 51t-55 52q-51 37 -76.5 66t-30 45t-4.5 40q0 40 31 93q44 73 44 116q0 37 -31.5 63t-83.5 26q-64 0 -99 -35.5t-35 -124.5z"/>
<glyph glyph-name="Korea1.769" horiz-adv-x="530" unicode="þ" d="M277 458h-123v-425h122q57 0 90 30.5t33 89.5v185q0 60 -32.5 90t-89.5 30zM75 -192v913h79v-199h122q201 0 201 -173v-206q0 -173 -201 -173h-122v-210h-34q-45 0 -45 48z"/>
<glyph glyph-name="Korea1.842" horiz-adv-x="320" unicode="¹" d="M216 693v-377h-26q-29 0 -29 34v317h-63v49h96q22 0 22 -23z"/>
<glyph glyph-name="Korea1.843" horiz-adv-x="320" unicode="²" d="M258 318h-168q-22 0 -30 7t-8 29v54q0 44 36 69l106 73q35 24 35 71q0 26 -21 42.5t-55 16.5q-38 0 -97 -11v49q62 12 98 12q56 0 93 -29t37 -80q0 -68 -55 -107l-105 -74q-17 -12 -17 -39v-34h180v-20q0 -29 -29 -29z"/>
<glyph glyph-name="Korea1.844" horiz-adv-x="320" unicode="³" d="M146 730q58 0 96 -26.5t38 -82.5q0 -31 -14.5 -57t-39.5 -37q63 -25 63 -94q0 -124 -134 -124h-10q-60 2 -96 9v21q0 25 23 25h6q30 -5 67 -5q44 0 66 15t22 55q0 71 -84 71h-60q-16 0 -16 18v32h76q75 0 75 72q0 28 -21.5 42.5t-57.5 14.5q-34 0 -89 -10l-2 47 q58 14 92 14z"/>
<glyph glyph-name="Korea1.18352" horiz-adv-x="229" unicode="¦" d="M149 235v-265h-69v265h69zM149 716v-264h-69v264h69z"/>
<glyph glyph-name="Korea1.18353" horiz-adv-x="871" unicode="®" d="M103 347q0 -147 93 -240t243 -93q148 0 241 92.5t93 240.5q0 147 -92.5 239t-241.5 92t-242.5 -92.5t-93.5 -238.5zM43 347q0 173 111.5 282.5t285.5 109.5t285 -109.5t111 -282.5q0 -174 -111 -283.5t-285 -109.5t-285.5 109.5t-111.5 283.5zM473 532h-127v-170h127 q77 0 77 73v28q0 69 -77 69zM556 89l-93 215h-117v-215h-31q-36 0 -36 39v462h194q70 0 107 -31.5t37 -83.5v-46q0 -38 -22.5 -72t-68.5 -44l101 -224h-71z"/>
<glyph glyph-name="Korea1.18354" horiz-adv-x="495" unicode="¯" d="M504 800v-64h-514v64h514z"/>
<glyph glyph-name="Korea1.18355" horiz-adv-x="557" unicode="µ" d="M485 -30h-216q-76 0 -120 22v-216h-34q-24 0 -34.5 10.5t-10.5 35.5l1 698h78v-370q0 -69 27 -93t93 -24h137v487h79v-550z"/>
<glyph glyph-name="Korea1.18356" horiz-adv-x="644" unicode="À" d="M242 916h87l73 -132h-25q-19 0 -29 5t-22 20zM454 259l-132 405l-131 -405h263zM395 194h-225l-71 -224h-82l251 746h79q11 0 23 -9.5t16 -20.5l242 -716h-80l-86 264q-26 -40 -67 -40z"/>
<glyph glyph-name="Korea1.18357" horiz-adv-x="644" unicode="Á" d="M314 916h87l-84 -107q-12 -15 -22 -20t-29 -5h-25zM454 259l-132 405l-131 -405h263zM395 194h-225l-71 -224h-82l251 746h79q11 0 23 -9.5t16 -20.5l242 -716h-80l-86 264q-26 -40 -67 -40z"/>
<glyph glyph-name="Korea1.18358" horiz-adv-x="644" unicode="Â" d="M321 871l-72 -90h-75l107 131h80l107 -131h-75zM454 259l-132 405l-131 -405h263zM395 194h-225l-71 -224h-82l251 746h79q11 0 23 -9.5t16 -20.5l242 -716h-80l-86 264q-26 -40 -67 -40z"/>
<glyph glyph-name="Korea1.18359" horiz-adv-x="644" unicode="Ã" d="M253 897q29 0 79 -26q44 -23 59 -23q46 0 54 49h58q0 -47 -31.5 -77t-77.5 -30q-8 0 -15 0.5t-14.5 2.5t-11.5 3t-12 4.5t-10 4.5l-11 5.5t-10 5.5q-3 1 -13 7t-14 7.5t-12.5 4t-16.5 2.5q-47 0 -54 -48h-58q0 48 32 78t79 30zM454 259l-132 405l-131 -405h263zM395 194 h-225l-71 -224h-82l251 746h79q11 0 23 -9.5t16 -20.5l242 -716h-80l-86 264q-26 -40 -67 -40z"/>
<glyph glyph-name="Korea1.18360" horiz-adv-x="644" unicode="Ä" d="M278 885v-90h-85v90h85zM450 885v-90h-84v90h84zM454 259l-132 405l-131 -405h263zM395 194h-225l-71 -224h-82l251 746h79q11 0 23 -9.5t16 -20.5l242 -716h-80l-86 264q-26 -40 -67 -40z"/>
<glyph glyph-name="Korea1.18361" horiz-adv-x="644" unicode="Å" d="M216 856q0 44 29.5 71.5t74.5 27.5q46 0 75.5 -27t29.5 -72t-29.5 -72t-75.5 -27q-45 0 -74.5 27.5t-29.5 71.5zM264 856q0 -24 15.5 -39t40.5 -15q26 0 41.5 15t15.5 39t-15.5 39.5t-41.5 15.5q-25 0 -40.5 -15.5t-15.5 -39.5zM454 259l-132 405l-131 -405h263zM395 194 h-225l-71 -224h-82l251 746h79q11 0 23 -9.5t16 -20.5l242 -716h-80l-86 264q-26 -40 -67 -40z"/>
<glyph glyph-name="Korea1.18362" horiz-adv-x="563" unicode="Ç" d="M527 33v-21q0 -42 -57 -42h-127l-11 -36q77 -12 77 -79q0 -88 -135 -88q-32 0 -62 5l7 46q32 -3 45 -3q83 0 83 38q0 22 -17.5 31.5t-71.5 12.5l24 73h-27q-86 0 -140 51.5t-54 136.5v374q0 86 57.5 135t160.5 49h238v-19q0 -21 -11.5 -32t-44.5 -11h-179 q-143 0 -143 -136v-353q0 -56 31.5 -94t88.5 -38h268z"/>
<glyph glyph-name="Korea1.18363" horiz-adv-x="582" unicode="È" d="M201 916h87l73 -132h-25q-19 0 -29 5t-22 20zM494 -30h-420v746h452v-16q0 -24 -9 -35t-36 -11h-329v-256h341v-19q0 -21 -9 -32t-35 -11h-297v-303h386v-20q0 -43 -44 -43z"/>
<glyph glyph-name="Korea1.18364" horiz-adv-x="582" unicode="É" d="M289 916h87l-84 -107q-12 -15 -22 -20t-29 -5h-25zM494 -30h-420v746h452v-16q0 -24 -9 -35t-36 -11h-329v-256h341v-19q0 -21 -9 -32t-35 -11h-297v-303h386v-20q0 -43 -44 -43z"/>
<glyph glyph-name="Korea1.18365" horiz-adv-x="582" unicode="Ê" d="M297 871l-72 -90h-75l107 131h80l107 -131h-75zM494 -30h-420v746h452v-16q0 -24 -9 -35t-36 -11h-329v-256h341v-19q0 -21 -9 -32t-35 -11h-297v-303h386v-20q0 -43 -44 -43z"/>
<glyph glyph-name="Korea1.18366" horiz-adv-x="582" unicode="Ë" d="M243 885v-90h-85v90h85zM415 885v-90h-84v90h84zM494 -30h-420v746h452v-16q0 -24 -9 -35t-36 -11h-329v-256h341v-19q0 -21 -9 -32t-35 -11h-297v-303h386v-20q0 -43 -44 -43z"/>
<glyph glyph-name="Korea1.18367" horiz-adv-x="243" unicode="Ì" d="M37 916h87l73 -132h-25q-19 0 -29 5t-22 20zM84 716h79v-746h-35q-23 0 -33.5 10.5t-10.5 35.5v700z"/>
<glyph glyph-name="Korea1.18368" horiz-adv-x="243" unicode="Í" d="M110 916h87l-84 -107q-12 -15 -22 -20t-29 -5h-25zM84 716h79v-746h-35q-23 0 -33.5 10.5t-10.5 35.5v700z"/>
<glyph glyph-name="Korea1.18369" horiz-adv-x="243" unicode="Î" d="M123 871l-72 -90h-75l107 131h80l107 -131h-75zM84 716h79v-746h-35q-23 0 -33.5 10.5t-10.5 35.5v700z"/>
<glyph glyph-name="Korea1.18370" horiz-adv-x="243" unicode="Ï" d="M79 885v-90h-85v90h85zM251 885v-90h-84v90h84zM84 716h79v-746h-35q-23 0 -33.5 10.5t-10.5 35.5v700z"/>
<glyph glyph-name="Korea1.18371" horiz-adv-x="660" unicode="Ñ" d="M253 897q29 0 79 -26q44 -23 59 -23q46 0 54 49h58q0 -47 -31.5 -77t-77.5 -30q-8 0 -15 0.5t-14.5 2.5t-11.5 3t-12 4.5t-10 4.5l-11 5.5t-10 5.5q-3 1 -13 7t-14 7.5t-12.5 4t-16.5 2.5q-47 0 -54 -48h-58q0 48 32 78t79 30zM74 16v700h306q108 0 156.5 -40.5 t48.5 -149.5v-556h-33q-45 0 -45 46v511q0 73 -28 100t-99 27h-228v-684h-34q-23 0 -33.5 10.5t-10.5 35.5z"/>
<glyph glyph-name="Korea1.18372" horiz-adv-x="688" unicode="Ò" d="M241 916h87l73 -132h-25q-19 0 -29 5t-22 20zM549 272v143v15q0 232 -206 232q-108 0 -157 -61.5t-49 -168.5v-18v-143q0 -129 51 -188t155 -59q105 0 155.5 59t50.5 189zM343 730q142 0 213 -81.5t71 -234.5v-143q0 -153 -71 -234t-213 -81t-213 81.5t-71 234.5v142 q0 153 71 234.5t213 81.5z"/>
<glyph glyph-name="Korea1.18373" horiz-adv-x="688" unicode="Ó" d="M328 916h87l-84 -107q-12 -15 -22 -20t-29 -5h-25zM549 272v143v15q0 232 -206 232q-108 0 -157 -61.5t-49 -168.5v-18v-143q0 -129 51 -188t155 -59q105 0 155.5 59t50.5 189zM343 730q142 0 213 -81.5t71 -234.5v-143q0 -153 -71 -234t-213 -81t-213 81.5t-71 234.5 v142q0 153 71 234.5t213 81.5z"/>
<glyph glyph-name="Korea1.18374" horiz-adv-x="688" unicode="Ô" d="M342 871l-72 -90h-75l107 131h80l107 -131h-75zM549 272v143v15q0 232 -206 232q-108 0 -157 -61.5t-49 -168.5v-18v-143q0 -129 51 -188t155 -59q105 0 155.5 59t50.5 189zM343 730q142 0 213 -81.5t71 -234.5v-143q0 -153 -71 -234t-213 -81t-213 81.5t-71 234.5v142 q0 153 71 234.5t213 81.5z"/>
<glyph glyph-name="Korea1.18375" horiz-adv-x="688" unicode="Õ" d="M262 897q29 0 79 -26q44 -23 59 -23q46 0 54 49h58q0 -47 -31.5 -77t-77.5 -30q-8 0 -15 0.5t-14.5 2.5t-11.5 3t-12 4.5t-10 4.5l-11 5.5t-10 5.5q-3 1 -13 7t-14 7.5t-12.5 4t-16.5 2.5q-47 0 -54 -48h-58q0 48 32 78t79 30zM549 272v143v15q0 232 -206 232 q-108 0 -157 -61.5t-49 -168.5v-18v-143q0 -129 51 -188t155 -59q105 0 155.5 59t50.5 189zM343 730q142 0 213 -81.5t71 -234.5v-143q0 -153 -71 -234t-213 -81t-213 81.5t-71 234.5v142q0 153 71 234.5t213 81.5z"/>
<glyph glyph-name="Korea1.18376" horiz-adv-x="688" unicode="Ö" d="M294 885v-90h-85v90h85zM466 885v-90h-84v90h84zM549 272v143v15q0 232 -206 232q-108 0 -157 -61.5t-49 -168.5v-18v-143q0 -129 51 -188t155 -59q105 0 155.5 59t50.5 189zM343 730q142 0 213 -81.5t71 -234.5v-143q0 -153 -71 -234t-213 -81t-213 81.5t-71 234.5v142 q0 153 71 234.5t213 81.5z"/>
<glyph glyph-name="Korea1.18377" horiz-adv-x="667" unicode="Ù" d="M243 916h87l73 -132h-25q-19 0 -29 5t-22 20zM586 716v-746h-306q-108 0 -156.5 40.5t-48.5 150.5v555h78v-556q0 -73 28 -100t99 -27h228v683h78z"/>
<glyph glyph-name="Korea1.18378" horiz-adv-x="667" unicode="Ú" d="M316 916h87l-84 -107q-12 -15 -22 -20t-29 -5h-25zM586 716v-746h-306q-108 0 -156.5 40.5t-48.5 150.5v555h78v-556q0 -73 28 -100t99 -27h228v683h78z"/>
<glyph glyph-name="Korea1.18379" horiz-adv-x="667" unicode="Û" d="M333 871l-72 -90h-75l107 131h80l107 -131h-75zM586 716v-746h-306q-108 0 -156.5 40.5t-48.5 150.5v555h78v-556q0 -73 28 -100t99 -27h228v683h78z"/>
<glyph glyph-name="Korea1.18380" horiz-adv-x="667" unicode="Ü" d="M285 885v-90h-85v90h85zM457 885v-90h-84v90h84zM586 716v-746h-306q-108 0 -156.5 40.5t-48.5 150.5v555h78v-556q0 -73 28 -100t99 -27h228v683h78z"/>
<glyph glyph-name="Korea1.18381" horiz-adv-x="644" unicode="Ý" d="M313 916h87l-84 -107q-12 -15 -22 -20t-29 -5h-25zM356 267v-297h-33q-45 0 -45 46v252l-262 448h83l220 -380l222 380h85z"/>
<glyph glyph-name="Korea1.18382" horiz-adv-x="529" unicode="à" d="M167 716h87l73 -132h-25q-19 0 -29 5t-22 20zM232 261q-53 0 -76 -20.5t-23 -69.5v-54q0 -45 29.5 -64.5t69.5 -19.5h153v217q-82 11 -153 11zM464 373v-403h-233q-82 0 -129 36.5t-47 105.5v63q0 154 166 154h10q76 -1 154 -13v57q0 83 -94 83h-140q-33 0 -44 10t-11 30 v24h195q173 0 173 -147z"/>
<glyph glyph-name="Korea1.18383" horiz-adv-x="529" unicode="á" d="M260 716h87l-84 -107q-12 -15 -22 -20t-29 -5h-25zM232 261q-53 0 -76 -20.5t-23 -69.5v-54q0 -45 29.5 -64.5t69.5 -19.5h153v217q-82 11 -153 11zM464 373v-403h-233q-82 0 -129 36.5t-47 105.5v63q0 154 166 154h10q76 -1 154 -13v57q0 83 -94 83h-140q-33 0 -44 10 t-11 30v24h195q173 0 173 -147z"/>
<glyph glyph-name="Korea1.18384" horiz-adv-x="529" unicode="â" d="M271 671l-72 -90h-75l107 131h80l107 -131h-75zM232 261q-53 0 -76 -20.5t-23 -69.5v-54q0 -45 29.5 -64.5t69.5 -19.5h153v217q-82 11 -153 11zM464 373v-403h-233q-82 0 -129 36.5t-47 105.5v63q0 154 166 154h10q76 -1 154 -13v57q0 83 -94 83h-140q-33 0 -44 10 t-11 30v24h195q173 0 173 -147z"/>
<glyph glyph-name="Korea1.18385" horiz-adv-x="529" unicode="ã" d="M188 697q29 0 79 -26q44 -23 59 -23q46 0 54 49h58q0 -47 -31.5 -77t-77.5 -30q-8 0 -15 0.5t-14.5 2.5t-11.5 3t-12 4.5t-10 4.5l-11 5.5t-10 5.5q-3 1 -13 7t-14 7.5t-12.5 4t-16.5 2.5q-47 0 -54 -48h-58q0 48 32 78t79 30zM232 261q-53 0 -76 -20.5t-23 -69.5v-54 q0 -45 29.5 -64.5t69.5 -19.5h153v217q-82 11 -153 11zM464 373v-403h-233q-82 0 -129 36.5t-47 105.5v63q0 154 166 154h10q76 -1 154 -13v57q0 83 -94 83h-140q-33 0 -44 10t-11 30v24h195q173 0 173 -147z"/>
<glyph glyph-name="Korea1.18386" horiz-adv-x="529" unicode="ä" d="M220 685v-90h-85v90h85zM392 685v-90h-84v90h84zM232 261q-53 0 -76 -20.5t-23 -69.5v-54q0 -45 29.5 -64.5t69.5 -19.5h153v217q-82 11 -153 11zM464 373v-403h-233q-82 0 -129 36.5t-47 105.5v63q0 154 166 154h10q76 -1 154 -13v57q0 83 -94 83h-140q-33 0 -44 10 t-11 30v24h195q173 0 173 -147z"/>
<glyph glyph-name="Korea1.18387" horiz-adv-x="529" unicode="å" d="M160 656q0 44 29.5 71.5t74.5 27.5q46 0 75.5 -27t29.5 -72t-29.5 -72t-75.5 -27q-45 0 -74.5 27.5t-29.5 71.5zM208 656q0 -24 15.5 -39t40.5 -15q26 0 41.5 15t15.5 39t-15.5 39.5t-41.5 15.5q-25 0 -40.5 -15.5t-15.5 -39.5zM232 261q-53 0 -76 -20.5t-23 -69.5v-54 q0 -45 29.5 -64.5t69.5 -19.5h153v217q-82 11 -153 11zM464 373v-403h-233q-82 0 -129 36.5t-47 105.5v63q0 154 166 154h10q76 -1 154 -13v57q0 83 -94 83h-140q-33 0 -44 10t-11 30v24h195q173 0 173 -147z"/>
<glyph glyph-name="Korea1.18388" horiz-adv-x="490" unicode="ç" d="M262 33h187v-21q0 -20 -11 -31t-44 -11h-73l-11 -36q77 -12 77 -79q0 -88 -135 -88q-32 0 -62 5l7 46q31 -3 45 -3q83 0 83 38q0 22 -17.5 31.5t-71.5 12.5l24 73q-89 1 -143.5 50t-54.5 131v185q0 83 55.5 133.5t144.5 50.5h183v-19q0 -22 -10.5 -33.5t-41.5 -11.5h-131 q-59 0 -90 -30.5t-31 -89.5v-184q0 -54 32 -86.5t89 -32.5z"/>
<glyph glyph-name="Korea1.18389" horiz-adv-x="537" unicode="è" d="M175 716h87l73 -132h-25q-19 0 -29 5t-22 20zM134 360v-84h238q19 0 24.5 6t5.5 24v54q0 52 -35.5 81.5t-100.5 29.5q-61 0 -96.5 -30t-35.5 -81zM242 33h218v-24q0 -20 -10.5 -29.5t-43.5 -9.5h-164q-84 0 -135.5 47t-51.5 126v196q0 99 59 147t152 48q96 0 155.5 -46 t59.5 -128v-82q0 -33 -16 -49t-53 -16h-278v-70q0 -51 31 -80.5t77 -29.5z"/>
<glyph glyph-name="Korea1.18390" horiz-adv-x="537" unicode="é" d="M271 716h87l-84 -107q-12 -15 -22 -20t-29 -5h-25zM134 360v-84h238q19 0 24.5 6t5.5 24v54q0 52 -35.5 81.5t-100.5 29.5q-61 0 -96.5 -30t-35.5 -81zM242 33h218v-24q0 -20 -10.5 -29.5t-43.5 -9.5h-164q-84 0 -135.5 47t-51.5 126v196q0 99 59 147t152 48 q96 0 155.5 -46t59.5 -128v-82q0 -33 -16 -49t-53 -16h-278v-70q0 -51 31 -80.5t77 -29.5z"/>
<glyph glyph-name="Korea1.18391" horiz-adv-x="537" unicode="ê" d="M271 671l-72 -90h-75l107 131h80l107 -131h-75zM134 360v-84h238q19 0 24.5 6t5.5 24v54q0 52 -35.5 81.5t-100.5 29.5q-61 0 -96.5 -30t-35.5 -81zM242 33h218v-24q0 -20 -10.5 -29.5t-43.5 -9.5h-164q-84 0 -135.5 47t-51.5 126v196q0 99 59 147t152 48q96 0 155.5 -46 t59.5 -128v-82q0 -33 -16 -49t-53 -16h-278v-70q0 -51 31 -80.5t77 -29.5z"/>
<glyph glyph-name="Korea1.18392" horiz-adv-x="537" unicode="ë" d="M227 685v-90h-85v90h85zM399 685v-90h-84v90h84zM134 360v-84h238q19 0 24.5 6t5.5 24v54q0 52 -35.5 81.5t-100.5 29.5q-61 0 -96.5 -30t-35.5 -81zM242 33h218v-24q0 -20 -10.5 -29.5t-43.5 -9.5h-164q-84 0 -135.5 47t-51.5 126v196q0 99 59 147t152 48 q96 0 155.5 -46t59.5 -128v-82q0 -33 -16 -49t-53 -16h-278v-70q0 -51 31 -80.5t77 -29.5z"/>
<glyph glyph-name="Korea1.18393" horiz-adv-x="239" unicode="ì" d="M69 520h79v-550h-34q-24 0 -34.5 11t-10.5 37v502zM26 716h87l73 -132h-25q-19 0 -29 5t-22 20z"/>
<glyph glyph-name="Korea1.18394" horiz-adv-x="239" unicode="í" d="M69 520h79v-550h-34q-24 0 -34.5 11t-10.5 37v502zM102 716h87l-84 -107q-12 -15 -22 -20t-29 -5h-25z"/>
<glyph glyph-name="Korea1.18395" horiz-adv-x="239" unicode="î" d="M69 520h79v-550h-34q-24 0 -34.5 11t-10.5 37v502zM110 671l-72 -90h-75l107 131h80l107 -131h-75z"/>
<glyph glyph-name="Korea1.18396" horiz-adv-x="239" unicode="ï" d="M69 520h79v-550h-34q-24 0 -34.5 11t-10.5 37v502zM66 685v-90h-85v90h85zM238 685v-90h-84v90h84z"/>
<glyph glyph-name="Korea1.18397" horiz-adv-x="558" unicode="ñ" d="M205 697q29 0 79 -26q44 -23 59 -23q46 0 54 49h58q0 -47 -31.5 -77t-77.5 -30q-8 0 -15 0.5t-14.5 2.5t-11.5 3t-12 4.5t-10 4.5l-11 5.5t-10 5.5q-3 1 -13 7t-14 7.5t-12.5 4t-16.5 2.5q-47 0 -54 -48h-58q0 48 32 78t79 30zM70 520h236q101 0 141.5 -38t40.5 -132 v-380h-34q-24 0 -35 11t-11 37v332q0 62 -22 84t-80 22h-157v-486h-33q-24 0 -35 11t-11 37v502z"/>
<glyph glyph-name="Korea1.18398" horiz-adv-x="562" unicode="ò" d="M174 716h87l73 -132h-25q-19 0 -29 5t-22 20zM421 182v128q0 86 -31 121q-34 40 -110 40q-73 0 -107 -36.5t-34 -124.5v-128q0 -88 33.5 -125t107.5 -37t107.5 36t33.5 126zM280 534q111 0 165.5 -52.5t54.5 -171.5v-128q0 -119 -54.5 -172.5t-165.5 -53.5 q-109 0 -164.5 53.5t-55.5 172.5v128q0 117 55.5 170.5t164.5 53.5z"/>
<glyph glyph-name="Korea1.18399" horiz-adv-x="562" unicode="ó" d="M275 716h87l-84 -107q-12 -15 -22 -20t-29 -5h-25zM421 182v128q0 86 -31 121q-34 40 -110 40q-73 0 -107 -36.5t-34 -124.5v-128q0 -88 33.5 -125t107.5 -37t107.5 36t33.5 126zM280 534q111 0 165.5 -52.5t54.5 -171.5v-128q0 -119 -54.5 -172.5t-165.5 -53.5 q-109 0 -164.5 53.5t-55.5 172.5v128q0 117 55.5 170.5t164.5 53.5z"/>
<glyph glyph-name="Korea1.18400" horiz-adv-x="562" unicode="ô" d="M279 671l-72 -90h-75l107 131h80l107 -131h-75zM421 182v128q0 86 -31 121q-34 40 -110 40q-73 0 -107 -36.5t-34 -124.5v-128q0 -88 33.5 -125t107.5 -37t107.5 36t33.5 126zM280 534q111 0 165.5 -52.5t54.5 -171.5v-128q0 -119 -54.5 -172.5t-165.5 -53.5 q-109 0 -164.5 53.5t-55.5 172.5v128q0 117 55.5 170.5t164.5 53.5z"/>
<glyph glyph-name="Korea1.18401" horiz-adv-x="562" unicode="õ" d="M200 697q29 0 79 -26q44 -23 59 -23q46 0 54 49h58q0 -47 -31.5 -77t-77.5 -30q-8 0 -15 0.5t-14.5 2.5t-11.5 3t-12 4.5t-10 4.5l-11 5.5t-10 5.5q-3 1 -13 7t-14 7.5t-12.5 4t-16.5 2.5q-47 0 -54 -48h-58q0 48 32 78t79 30zM421 182v128q0 86 -31 121q-34 40 -110 40 q-73 0 -107 -36.5t-34 -124.5v-128q0 -88 33.5 -125t107.5 -37t107.5 36t33.5 126zM280 534q111 0 165.5 -52.5t54.5 -171.5v-128q0 -119 -54.5 -172.5t-165.5 -53.5q-109 0 -164.5 53.5t-55.5 172.5v128q0 117 55.5 170.5t164.5 53.5z"/>
<glyph glyph-name="Korea1.18402" horiz-adv-x="562" unicode="ö" d="M234 685v-90h-85v90h85zM406 685v-90h-84v90h84zM421 182v128q0 86 -31 121q-34 40 -110 40q-73 0 -107 -36.5t-34 -124.5v-128q0 -88 33.5 -125t107.5 -37t107.5 36t33.5 126zM280 534q111 0 165.5 -52.5t54.5 -171.5v-128q0 -119 -54.5 -172.5t-165.5 -53.5 q-109 0 -164.5 53.5t-55.5 172.5v128q0 117 55.5 170.5t164.5 53.5z"/>
<glyph glyph-name="Korea1.18403" horiz-adv-x="548" unicode="ù" d="M174 716h87l73 -132h-25q-19 0 -29 5t-22 20zM479 -30h-216q-106 0 -152 39.5t-46 146.5v364h78v-364q0 -75 25.5 -99t94.5 -24h137v487h79v-550z"/>
<glyph glyph-name="Korea1.18404" horiz-adv-x="548" unicode="ú" d="M270 716h87l-84 -107q-12 -15 -22 -20t-29 -5h-25zM479 -30h-216q-106 0 -152 39.5t-46 146.5v364h78v-364q0 -75 25.5 -99t94.5 -24h137v487h79v-550z"/>
<glyph glyph-name="Korea1.18405" horiz-adv-x="548" unicode="û" d="M274 671l-72 -90h-75l107 131h80l107 -131h-75zM479 -30h-216q-106 0 -152 39.5t-46 146.5v364h78v-364q0 -75 25.5 -99t94.5 -24h137v487h79v-550z"/>
<glyph glyph-name="Korea1.18406" horiz-adv-x="548" unicode="ü" d="M236 685v-90h-85v90h85zM408 685v-90h-84v90h84zM479 -30h-216q-106 0 -152 39.5t-46 146.5v364h78v-364q0 -75 25.5 -99t94.5 -24h137v487h79v-550z"/>
<glyph glyph-name="Korea1.18407" horiz-adv-x="548" unicode="ý" d="M268 716h87l-84 -107q-12 -15 -22 -20t-29 -5h-25zM313 -239h-222v24q0 24 11.5 34t40.5 10h170q48 0 67.5 19t19.5 57v75q-69 -7 -170 -10h-7q-80 0 -119.5 45t-39.5 128v377h79v-376q0 -57 19.5 -84t68.5 -27h3q65 1 166 10v477h79v-616q0 -65 -41 -104t-125 -39z"/>
</font>
</defs>
</svg>
