<?xml version="1.0" encoding="UTF-8" standalone="no"?>
<!DOCTYPE svg  PUBLIC '-//W3C//DTD SVG 1.1//EN'  'http://www.w3.org/Graphics/SVG/1.1/DTD/svg11.dtd'>
<svg xmlns="http://www.w3.org/2000/svg">
<defs>
<font id="ModernH-BoldA" horiz-adv-x="520">
<font-face underline-position="-100" font-weight="700" descent="-200" panose-1="2 0 8 3 0 0 0 0 0 0" units-per-em="1000" unicode-range="U+0021-00FE" bbox="-45 -239 981 986" x-height="520" underline-thickness="50" font-family="ModernH" ascent="800" cap-height="716"/>
<missing-glyph horiz-adv-x="1000"/>
<glyph glyph-name=".notdef" horiz-adv-x="1000"/>
<glyph glyph-name=".null" horiz-adv-x="0"/>
<glyph glyph-name="nonmarkingreturn" horiz-adv-x="333"/>
<glyph glyph-name="Korea1.2" horiz-adv-x="347" unicode="!" d="M235 97v-127h-127v127h127zM223 213h-101l-16 527h135z"/>
<glyph glyph-name="Korea1.3" horiz-adv-x="453" unicode='&quot;' d="M249 751h120l-13 -271h-41q-26 0 -39.5 14.5t-14.5 36.5zM72 751h120l-13 -271h-42q-25 0 -38.5 14.5t-14.5 35.5z"/>
<glyph glyph-name="Korea1.4" horiz-adv-x="696" unicode="#" d="M294 445l-29 -182h138l29 182h-138zM28 171v92h120l29 182h-96v93h111l31 192h117l-31 -192h138l31 192h117l-31 -192h103v-50q0 -24 -10.5 -33.5t-36.5 -9.5h-71l-29 -182h95v-50q0 -24 -10.5 -33t-36.5 -9h-63l-27 -168q-8 -47 -51 -47h-72l34 215h-139l-27 -168 q-3 -22 -17 -34.5t-34 -12.5h-72l34 215h-106z"/>
<glyph glyph-name="Korea1.5" horiz-adv-x="535" unicode="$" d="M382 177q0 54 -57 88v-164q57 19 57 76zM157 515q0 -55 63 -89v161q-63 -14 -63 -72zM220 760h105v-74h143v-41q0 -34 -14.5 -43.5t-53.5 -9.5h-75v-216l25 -12q83 -39 115 -81t32 -105q0 -149 -172 -174v-77h-65q-22 0 -31 11.5t-9 38.5v23h-180v41q0 27 15 39.5 t54 12.5h111v221l-47 21q-131 58 -131 180q0 73 44 116.5t134 52.5v76z"/>
<glyph glyph-name="Korea1.6" horiz-adv-x="868" unicode="%" d="M36 532q0 82 43.5 127.5t125.5 45.5q81 0 125.5 -45.5t44.5 -127.5q0 -80 -44.5 -126t-125.5 -46q-82 0 -125.5 44.5t-43.5 127.5zM150 532q0 -79 55 -79q32 0 43 20.5t11 58.5t-11 59t-43 21q-55 0 -55 -80zM546 716h122l-330 -710q-17 -36 -60 -36h-78zM491 151 q0 82 44 127t126 45q80 0 125 -45t45 -127t-44.5 -127t-125.5 -45q-82 0 -126 44.5t-44 127.5zM606 151q0 -80 55 -80q54 0 54 80t-54 80q-55 0 -55 -80z"/>
<glyph glyph-name="Korea1.7" horiz-adv-x="712" unicode="&amp;" d="M693 -30h-135l-50 55q-90 -69 -219 -69q-127 0 -189.5 58t-62.5 143q0 110 110 184l55 37l-38 46q-20 24 -31.5 40.5t-22.5 44t-11 55.5q0 73 52 119.5t153 46.5q93 0 148.5 -49t55.5 -123q0 -90 -83 -149l-71 -50l142 -164q18 51 18 122l106 -12q-1 -115 -48 -195 q21 -23 64 -74t57 -66zM439 102l-171 201q-8 -5 -56 -40q-59 -43 -59 -107q0 -49 38 -78t98 -29q92 0 150 53zM291 437l59 40q42 29 42 81q0 33 -24 55.5t-64 22.5q-42 0 -65.5 -20.5t-23.5 -55.5q0 -30 29 -66z"/>
<glyph glyph-name="Korea1.8" horiz-adv-x="306" unicode="&apos;" d="M94 751h120l-13 -271h-40q-25 0 -38.5 14.5t-15.5 36.5z"/>
<glyph glyph-name="Korea1.9" horiz-adv-x="398" unicode="(" d="M206 202q7 -58 38.5 -111.5t80.5 -81.5l-62 -70q-70 35 -115.5 107t-54.5 153q-8 56 -8 153q0 87 8 154q22 173 169 259l63 -68q-101 -60 -119 -194q-8 -55 -8 -151q0 -94 8 -150z"/>
<glyph glyph-name="Korea1.10" horiz-adv-x="402" unicode=")" d="M193 202q8 56 8 150q0 96 -8 151q-18 134 -119 194l63 68q147 -86 169 -259q8 -67 8 -154q0 -97 -8 -153q-9 -81 -54.5 -153t-115.5 -107l-62 70q49 28 80.5 81.5t38.5 111.5z"/>
<glyph glyph-name="Korea1.11" horiz-adv-x="585" unicode="*" d="M473 356l-125 85l14 -146h-121l13 144l-128 -82l-63 101l150 60l-147 71l63 102l125 -93l-14 154h119l-12 -154l128 94l56 -104l-143 -64l143 -66z"/>
<glyph glyph-name="Korea1.12" horiz-adv-x="604" unicode="+" d="M360 576v-190h190v-94h-190v-194h-117v194h-188v94h188v190h117z"/>
<glyph glyph-name="Korea1.13" horiz-adv-x="276" unicode="," d="M124 -30h-55v127h140v-118q0 -53 -26.5 -95.5t-75.5 -62.5l-41 49q58 31 58 82v18z"/>
<glyph glyph-name="Korea1.14" horiz-adv-x="559" unicode="-" d="M66 293v94h428v-94h-428z"/>
<glyph glyph-name="Korea1.15" horiz-adv-x="273" unicode="." d="M199 97v-127h-126v127h126z"/>
<glyph glyph-name="Korea1.16" horiz-adv-x="504" unicode="/" d="M337 751h117l-281 -803h-116z"/>
<glyph glyph-name="Korea1.17" d="M259 730q57 0 97 -16.5t65.5 -46t40 -79t20 -106t5.5 -137.5q0 -211 -50 -300t-178 -89q-129 0 -178 92.5t-49 296.5q0 198 48 291.5t179 93.5zM259 49q31 0 52.5 14.5t33 37t18 64t8 79.5t1.5 101q0 61 -1.5 98t-8 78t-18 63.5t-33 37t-52.5 14.5q-36 0 -59 -19.5 t-34 -62.5t-14.5 -89t-3.5 -120q0 -60 2 -100.5t8.5 -80.5t18.5 -63t32.5 -37.5t49.5 -14.5z" unicode="0"/>
<glyph glyph-name="Korea1.18" d="M344 672v-702h-55q-32 0 -46 15.5t-14 49.5v588h-117v93h184q48 0 48 -44z" unicode="1"/>
<glyph glyph-name="Korea1.19" d="M416 -30h-302q-43 0 -59.5 14t-16.5 54v101q0 80 69 128l189 128q38 26 50.5 54.5t12.5 73.5q0 52 -35.5 83t-97.5 31q-83 0 -174 -24v94q89 23 174 23q114 0 181.5 -55t67.5 -152q-1 -129 -107 -201l-185 -125q-30 -21 -30 -64v-69h326v-38q0 -56 -63 -56z" unicode="2"/>
<glyph glyph-name="Korea1.20" d="M223 730q106 0 172.5 -47.5t66.5 -145.5v-6q-1 -121 -82 -170q48 -23 74 -67.5t26 -99.5q0 -121 -70.5 -179.5t-194.5 -58.5h-10q-67 0 -163 16v41q0 47 46 47q10 0 16 -1q52 -7 101 -7q159 0 159 136q0 69 -31 95t-101 26h-104q-22 0 -31 7.5t-9 27.5v59h144 q65 0 90 29.5t25 100.5q0 48 -34 76t-91 28q-74 0 -162 -22v92q87 23 163 23z" unicode="3"/>
<glyph glyph-name="Korea1.21" d="M327 575l-193 -390h193v390zM450 93h-11v-123h-54q-32 0 -45 15.5t-13 49.5v58h-309v88l244 487q23 48 81 48h96v-531h62v-44q0 -48 -51 -48z" unicode="4"/>
<glyph glyph-name="Korea1.22" d="M240 334h-180v382h398v-45q0 -48 -56 -48h-226v-195h70q124 0 176 -57t52 -163q0 -123 -65 -187.5t-195 -64.5q-81 0 -166 15v43q0 43 45 43q2 0 6 -0.5t5 -0.5q57 -4 108 -6h7q70 0 104.5 41.5t34.5 116.5q0 56 -24.5 91t-93.5 35z" unicode="5"/>
<glyph glyph-name="Korea1.23" d="M369 173v67q0 63 -25.5 89t-78.5 26q-59 0 -87.5 -26t-28.5 -86v-71q0 -64 25.5 -92t87.5 -28q107 0 107 121zM450 705v-46q0 -20 -8.5 -30t-17.5 -11.5t-25 -1.5q-67 5 -107 5q-39 0 -67.5 -13t-42.5 -30t-22 -43.5t-9.5 -44.5t-1.5 -42v-42q42 46 118 46q107 0 161 -52 t54 -148v-92q0 -100 -57 -152t-163 -52q-107 0 -166 51.5t-59 152.5v277q0 279 254 279q65 0 159 -11z" unicode="6"/>
<glyph glyph-name="Korea1.24" d="M478 679v-39q0 -18 -13 -53l-205 -579q-13 -38 -53 -38h-75l233 653h-318v93h386q45 0 45 -37z" unicode="7"/>
<glyph glyph-name="Korea1.25" d="M261 -44q-114 0 -177 55t-63 163q0 81 26.5 125t75.5 71q-85 47 -85 153q0 107 58.5 157t162.5 50q103 0 163 -51t60 -155q0 -47 -24 -92.5t-61 -63.5q102 -47 102 -188q0 -105 -57.5 -164.5t-180.5 -59.5zM259 322q-122 0 -122 -139q0 -63 32 -98.5t92 -35.5q64 0 93 38 t29 95q0 70 -28 105t-96 35zM258 409q109 0 109 115q0 56 -30 84t-77 28q-50 0 -78 -28t-28 -84q0 -115 104 -115z" unicode="8"/>
<glyph glyph-name="Korea1.26" d="M150 513v-67q0 -63 25.5 -89t78.5 -26q59 0 87.5 26t28.5 86v71q0 64 -25.5 92t-87.5 28q-107 0 -107 -121zM69 -19v46q0 43 44 43h7q67 -5 107 -5q39 0 67.5 13.5t42.5 31t22 45t9.5 45.5t1.5 42v38q-42 -46 -118 -46q-107 0 -161 52t-54 148v92q0 100 57 152t163 52 q107 0 166 -51.5t59 -152.5v-273q0 -283 -254 -283q-65 0 -159 11z" unicode="9"/>
<glyph glyph-name="Korea1.27" horiz-adv-x="273" unicode=":" d="M199 598v-128h-126v128h126zM199 217v-127h-126v127h126z"/>
<glyph glyph-name="Korea1.28" horiz-adv-x="276" unicode=";" d="M199 598v-128h-126v128h126zM81 217h125l-93 -268h-36q-33 0 -33 36q0 5 2 21z"/>
<glyph glyph-name="Korea1.29" horiz-adv-x="500" unicode="&lt;" d="M433 90l-80 -72l-289 324l289 319l82 -68l-230 -251z"/>
<glyph glyph-name="Korea1.30" horiz-adv-x="586" unicode="=" d="M79 418v94h428v-94h-428zM79 194v94h428v-94h-428z"/>
<glyph glyph-name="Korea1.31" horiz-adv-x="500" unicode="&gt;" d="M146 18l-80 72l228 252l-230 251l82 68l289 -319z"/>
<glyph glyph-name="Korea1.32" horiz-adv-x="543" unicode="?" d="M298 97v-127h-126v127h126zM293 181h-115v54q0 49 9.5 78.5t35.5 47.5l88 60q67 46 67 123q0 46 -40.5 74t-104.5 28q-75 0 -185 -33l-5 94q104 33 188 33q114 0 188.5 -52.5t74.5 -140.5q0 -120 -95 -188l-83 -59q-15 -11 -19 -25t-4 -42v-52z"/>
<glyph glyph-name="Korea1.33" horiz-adv-x="916" unicode="@" d="M445 331q-36 0 -52 -10t-16 -36v-38q0 -26 16 -37t52 -11h90v127q-44 5 -90 5zM471 763q194 0 300.5 -105t106.5 -274q0 -120 -68.5 -199.5t-182.5 -79.5h-201q-75 0 -120.5 37t-45.5 97v49q0 68 45 102t126 34q46 0 104 -5v27q0 22 -10.5 32.5t-39.5 10.5h-133 q-33 0 -44.5 11t-11.5 37v46h203q81 0 116.5 -37.5t35.5 -109.5v-231q48 10 79 58t31 120q0 129 -72 207.5t-220 78.5q-153 0 -235 -93t-82 -235q0 -143 76.5 -226t236.5 -83q92 0 188 31l16 -55q2 -8 2 -12q0 -22 -22 -30q-94 -28 -199 -28q-202 0 -308 110.5t-106 294.5 q0 186 113.5 303t321.5 117z"/>
<glyph glyph-name="Korea1.34" horiz-adv-x="668" unicode="A" d="M334 584l-98 -303h195zM533 -30l-80 249q-31 -35 -85 -35h-163l-68 -214h-120l250 746h90q20 0 36 -12t21 -29l238 -705h-119z"/>
<glyph glyph-name="Korea1.35" horiz-adv-x="644" unicode="B" d="M365 308h-176v-244h175q53 0 80.5 28t27.5 70v47q0 43 -26.5 71t-80.5 28zM366 621h-177v-218h177q47 0 67 27t20 65v38q0 38 -22.5 63t-64.5 25zM73 716h292q101 0 152.5 -49t51.5 -129v-47q0 -41 -19.5 -78t-52.5 -54q44 -18 68 -54.5t24 -81.5v-66q0 -94 -64 -140.5 t-160 -46.5h-292v746z"/>
<glyph glyph-name="Korea1.36" horiz-adv-x="583" unicode="C" d="M547 64v-37q0 -26 -16 -41.5t-59 -15.5h-205q-90 0 -148 54t-58 142v357q0 90 60.5 141.5t168.5 51.5h247v-36q0 -29 -15 -44t-59 -15h-170q-115 0 -115 -111v-337q0 -46 24.5 -77.5t68.5 -31.5h276z"/>
<glyph glyph-name="Korea1.37" horiz-adv-x="665" unicode="D" d="M350 621h-160v-557h160q63 0 99.5 32t36.5 88v316q0 58 -36 89.5t-100 31.5zM74 716h276q124 0 188 -59.5t64 -156.5v-316q0 -97 -64 -155.5t-188 -58.5h-276v746z"/>
<glyph glyph-name="Korea1.38" horiz-adv-x="602" unicode="E" d="M495 -30h-421v746h472v-34q0 -31 -13 -46t-51 -15h-291v-210h324v-36q0 -28 -13 -43t-50 -15h-261v-253h367v-36q0 -27 -13.5 -42.5t-49.5 -15.5z"/>
<glyph glyph-name="Korea1.39" horiz-adv-x="581" unicode="F" d="M456 317h-265v-347h-53q-35 0 -49.5 14t-14.5 49v683h484v-35q0 -29 -15 -44.5t-53 -15.5h-299v-210h335v-36q0 -58 -70 -58z"/>
<glyph glyph-name="Korea1.40" horiz-adv-x="672" unicode="G" d="M286 716h304v-35q0 -32 -16 -46t-55 -14h-233q-45 0 -73.5 -27.5t-28.5 -74.5v-350q0 -46 26.5 -75.5t75.5 -29.5h119q41 0 63 27.5t22 68.5v121q0 20 -23 20h-80q-37 0 -53 11t-16 42v42h203q46 0 66 -20.5t20 -63.5v-152q0 -93 -54.5 -141.5t-146.5 -48.5h-120 q-100 0 -159.5 51.5t-59.5 148.5v349q0 92 62 144.5t157 52.5z"/>
<glyph glyph-name="Korea1.41" horiz-adv-x="680" unicode="H" d="M486 716h117v-746h-53q-34 0 -49 14t-15 47v313q-22 -26 -75 -26h-220v-348h-54q-34 0 -48.5 14t-14.5 47v685h117v-304h295v304z"/>
<glyph glyph-name="Korea1.42" horiz-adv-x="282" unicode="I" d="M84 716h118v-746h-55q-34 0 -48.5 14t-14.5 47v685z"/>
<glyph glyph-name="Korea1.43" horiz-adv-x="426" unicode="J" d="M80 64h62q48 0 69.5 22.5t21.5 76.5v553h118v-553q0 -99 -50 -146t-159 -47h-129v39q0 31 15 43t52 12z"/>
<glyph glyph-name="Korea1.44" horiz-adv-x="645" unicode="K" d="M74 716h117v-746h-55q-33 0 -47.5 14.5t-14.5 47.5v684zM476 4l-263 351l273 361h142l-274 -360l287 -386h-93q-48 0 -72 34z"/>
<glyph glyph-name="Korea1.45" horiz-adv-x="548" unicode="L" d="M191 716v-652h339v-36q0 -32 -13 -45t-48 -13h-395v746h117z"/>
<glyph glyph-name="Korea1.46" horiz-adv-x="886" unicode="M" d="M807 716v-746h-54q-33 0 -48 14t-15 46v465q-27 -49 -81.5 -150.5t-81.5 -150.5q-31 -55 -86 -55t-84 54l-163 302v-525h-54q-63 0 -63 55v691h117l236 -447q4 -7 12 -7t12 7l236 447h117z"/>
<glyph glyph-name="Korea1.47" horiz-adv-x="677" unicode="N" d="M74 31v685h312q113 0 164.5 -42.5t51.5 -156.5v-547h-53q-34 0 -49 14t-15 47v487q0 59 -21.5 81t-77.5 22h-195v-651h-54q-34 0 -48.5 14t-14.5 47z"/>
<glyph glyph-name="Korea1.48" horiz-adv-x="702" unicode="O" d="M524 268v151q0 103 -39 153q-23 30 -53.5 44.5t-81.5 14.5t-82 -15t-54 -46q-38 -54 -38 -152v-151q0 -211 167 -211h7h7q167 0 167 212zM350 730q291 0 291 -312v-151q0 -311 -291 -311q-146 0 -218.5 80t-72.5 232v150q0 152 72.5 232t218.5 80z"/>
<glyph glyph-name="Korea1.49" horiz-adv-x="627" unicode="P" d="M349 619h-159v-279h159q104 0 104 93v94q0 92 -104 92zM349 244h-159v-274h-52q-35 0 -50 14t-15 47v685h276q109 0 165 -44.5t56 -144.5v-94q0 -26 -3 -47.5t-16 -49.5t-35.5 -46.5t-65.5 -32t-101 -13.5z"/>
<glyph glyph-name="Korea1.50" horiz-adv-x="712" unicode="Q" d="M524 268v151q0 105 -41 158.5t-133 53.5q-174 0 -174 -213v-151q0 -211 167 -211h7h7q167 0 167 212zM350 730q291 0 291 -312v-151q0 -169 -85 -244l106 -138h-82q-49 0 -72 30l-45 56q-49 -15 -113 -15q-146 0 -218.5 80t-72.5 232v150q0 152 72.5 232t218.5 80z"/>
<glyph glyph-name="Korea1.51" horiz-adv-x="643" unicode="R" d="M370 619h-180v-237h180q96 0 96 94v54q0 42 -24 65.5t-72 23.5zM344 286h-154v-316h-55q-33 0 -47.5 14t-14.5 47v685h297q103 0 158 -47t55 -123v-79q0 -58 -30 -104t-91 -63q28 -63 86.5 -187.5t66.5 -142.5h-127z"/>
<glyph glyph-name="Korea1.52" horiz-adv-x="578" unicode="S" d="M280 -30h-240v39q0 29 15 42t53 13h169q138 0 138 101q0 36 -24 63t-81 52l-126 56q-136 60 -136 193q0 87 59 137t178 50h224v-41q0 -32 -16 -43t-54 -11h-154q-119 0 -119 -92q0 -38 20.5 -63.5t64.5 -45.5l120 -54q91 -41 126.5 -86t35.5 -114q0 -56 -22 -96 t-60 -60.5t-80 -30t-91 -9.5z"/>
<glyph glyph-name="Korea1.53" horiz-adv-x="603" unicode="T" d="M244 31v590h-226v95h570v-35q0 -33 -13 -46.5t-53 -13.5h-161v-651h-54q-33 0 -48 14t-15 47z"/>
<glyph glyph-name="Korea1.54" horiz-adv-x="684" unicode="U" d="M603 716v-746h-312q-113 0 -164.5 42.5t-51.5 156.5v547h117v-548q0 -60 21.5 -82t77.5 -22h195v652h117z"/>
<glyph glyph-name="Korea1.55" horiz-adv-x="657" unicode="V" d="M133 716l195 -613q31 98 97.5 306.5t97.5 306.5h121l-249 -746h-85q-48 0 -62 42l-235 704h120z"/>
<glyph glyph-name="Korea1.56" horiz-adv-x="913" unicode="W" d="M787 716h118l-176 -746h-76q-67 0 -83 70l-111 436l-129 -506h-72q-39 0 -58 16t-27 52l-159 678h118l131 -599l139 535h115l138 -534z"/>
<glyph glyph-name="Korea1.57" horiz-adv-x="671" unicode="X" d="M150 -30h-132l250 374l-246 372h128l182 -273l182 273h130l-245 -372l249 -374h-132l-184 275z"/>
<glyph glyph-name="Korea1.58" horiz-adv-x="683" unicode="Y" d="M396 267v-297h-52q-35 0 -50 13.5t-15 47.5v234l-263 451h128l196 -339l197 339h128z"/>
<glyph glyph-name="Korea1.59" horiz-adv-x="626" unicode="Z" d="M45 716h526v-89l-404 -563h421v-57q0 -37 -43 -37h-512v92l403 559h-391v95z"/>
<glyph glyph-name="Korea1.60" horiz-adv-x="453" unicode="[" d="M380 17v-93h-247v866h247v-94h-131v-679h131z"/>
<glyph glyph-name="Korea1.61" horiz-adv-x="920" unicode="\" d="M490 354l-31 122l-31 -122h62zM686 260h-68l37 -142zM300 260h-69l32 -143zM121 260h-105v94h83l-85 362h118l79 -362h113l78 298h115l77 -298h113l80 362h118l-86 -362h84v-94h-106l-68 -290h-76q-65 0 -83 70l-56 220h-110l-74 -290h-72q-39 0 -57.5 16t-27.5 52z"/>
<glyph glyph-name="Korea1.62" horiz-adv-x="453" unicode="]" d="M79 -76v93h130v679h-130v94h246v-866h-246z"/>
<glyph glyph-name="Korea1.63" horiz-adv-x="628" unicode="^" d="M93 579l171 237h103l170 -237h-125l-97 137l-96 -137h-126z"/>
<glyph glyph-name="Korea1.64" horiz-adv-x="614" unicode="_" d="M103 -143v94h412v-94h-412z"/>
<glyph glyph-name="Korea1.65" horiz-adv-x="331" unicode="`" d="M62 785l110 52l105 -249l-35 -16q-15 -6 -27 -6q-28 0 -44 29z"/>
<glyph glyph-name="Korea1.66" horiz-adv-x="544" unicode="a" d="M241 243q-37 0 -53.5 -15.5t-16.5 -50.5v-53q0 -60 70 -60h122v172q-64 7 -122 7zM479 366v-396h-239q-87 0 -136 38.5t-49 111.5v61q0 160 175 160h10q69 -1 123 -8v33q0 61 -67 61h-130q-43 0 -57.5 13.5t-14.5 40.5v39h202q183 0 183 -154z"/>
<glyph glyph-name="Korea1.67" horiz-adv-x="555" unicode="b" d="M191 427v-363h97q43 0 68 24t25 70v174q0 47 -25 71t-67 24h-98zM75 721h116v-201h97q102 0 155 -45t53 -133v-193q0 -179 -208 -179h-213v751z"/>
<glyph glyph-name="Korea1.68" horiz-adv-x="505" unicode="c" d="M269 64h196v-37q0 -28 -14 -42.5t-58 -14.5h-124q-93 0 -150 49.5t-57 136.5v176q0 86 57.5 137t149.5 51h191v-34q0 -29 -13 -44t-56 -15h-122q-91 0 -91 -95v-175q0 -43 24 -68t67 -25z"/>
<glyph glyph-name="Korea1.69" horiz-adv-x="553" unicode="d" d="M364 64v363h-99q-42 0 -66.5 -24t-24.5 -71v-174q0 -46 24.5 -70t67.5 -24h98zM364 721h116v-751h-214q-208 0 -208 179v193q0 88 53 133t155 45h98v201z"/>
<glyph glyph-name="Korea1.70" horiz-adv-x="549" unicode="e" d="M171 354v-62h190q7 0 12 5.5t5 14.5v42q0 40 -27.5 63t-78.5 23q-46 0 -73.5 -23.5t-27.5 -62.5zM250 64h224v-40q0 -28 -13.5 -41t-57.5 -13h-153q-89 0 -142 48.5t-53 130.5v186q0 101 61 150t156 49q99 0 160 -47.5t61 -132.5v-72q0 -38 -22 -61t-65 -23h-235v-49 q0 -39 22.5 -62t56.5 -23z"/>
<glyph glyph-name="Korea1.71" horiz-adv-x="437" unicode="f" d="M246 520h143v-43q0 -25 -20 -37.5t-46 -12.5h-77v-457h-53q-34 0 -48.5 14t-14.5 48v395h-102v93h102v61q0 70 31 105t114 35h134v-32q0 -61 -73 -61h-61q-29 0 -29 -40v-68z"/>
<glyph glyph-name="Korea1.72" horiz-adv-x="561" unicode="g" d="M176 342v-194q0 -47 25 -65.5t59 -18.5h116v363h-116q-41 0 -62.5 -23.5t-21.5 -61.5zM174 -145h146q56 0 56 58v57h-116q-95 0 -147.5 46t-52.5 132v195q0 86 53.5 131.5t146.5 45.5h231v-609q0 -64 -39 -107t-129 -43h-217v40q0 54 68 54z"/>
<glyph glyph-name="Korea1.73" horiz-adv-x="574" unicode="h" d="M320 427h-130v-457h-53q-34 0 -48.5 14t-14.5 48v689h116v-201h130q188 0 188 -168v-382h-52q-34 0 -49 14t-15 48v319q0 76 -72 76z"/>
<glyph glyph-name="Korea1.74" horiz-adv-x="267" unicode="i" d="M72 664v66h120v-134h-44q-32 0 -54 18t-22 50zM74 520h116v-550h-52q-35 0 -49.5 14t-14.5 48v488z"/>
<glyph glyph-name="Korea1.75" horiz-adv-x="327" unicode="j" d="M136 -77v597h116v-597q0 -162 -177 -162h-86v39q0 27 17 41.5t45 14.5h24q61 0 61 67zM134 664v66h120v-134h-44q-33 0 -54.5 18t-21.5 50z"/>
<glyph glyph-name="Korea1.76" horiz-adv-x="574" unicode="k" d="M211 265l209 255h135l-213 -256l224 -294h-90q-41 0 -64 31zM75 32v689h116v-751h-52q-36 0 -50 13.5t-14 48.5z"/>
<glyph glyph-name="Korea1.77" horiz-adv-x="269" unicode="l" d="M73 721h116v-751h-53q-34 0 -48.5 14t-14.5 48v689z"/>
<glyph glyph-name="Korea1.78" horiz-adv-x="770" unicode="m" d="M524 427h-82v-457h-52q-34 0 -49 14t-15 48v395h-141v-457h-54q-33 0 -47.5 14t-14.5 48v488h455q92 0 134 -38t42 -120v-392h-54q-33 0 -47.5 14t-14.5 48v330q0 65 -60 65z"/>
<glyph glyph-name="Korea1.79" horiz-adv-x="571" unicode="n" d="M70 520h241q105 0 147.5 -40t42.5 -135v-375h-53q-34 0 -48.5 14t-14.5 48v313q0 47 -16 64.5t-58 17.5h-125v-457h-51q-35 0 -50 14t-15 48v488z"/>
<glyph glyph-name="Korea1.80" horiz-adv-x="574" unicode="o" d="M396 176v139q0 63 -23.5 94t-86.5 31q-56 0 -83 -28t-27 -92v-144q0 -66 27 -96.5t83 -30.5t83 29.5t27 97.5zM286 534q226 0 226 -219v-139q0 -113 -56.5 -166.5t-169.5 -53.5q-226 0 -226 220v139q0 219 226 219z"/>
<glyph glyph-name="Korea1.81" horiz-adv-x="553" unicode="p" d="M185 427v-363h102q88 0 88 91v179q0 93 -88 93h-102zM69 -161v681h218q204 0 204 -186v-179q0 -185 -204 -185h-102v-194h-53q-34 0 -48.5 14t-14.5 49z"/>
<glyph glyph-name="Korea1.82" horiz-adv-x="551" unicode="q" d="M368 64v363h-102q-88 0 -88 -93v-179q0 -91 88 -91h102zM484 -224h-52q-35 0 -49.5 14t-14.5 49v131h-102q-204 0 -204 185v179q0 186 204 186h218v-744z"/>
<glyph glyph-name="Korea1.83" horiz-adv-x="418" unicode="r" d="M183 379v-409h-53q-34 0 -48.5 14t-14.5 48v347q0 70 35.5 105.5t114.5 35.5h182v-29q0 -64 -79 -64h-103q-34 0 -34 -48z"/>
<glyph glyph-name="Korea1.84" horiz-adv-x="474" unicode="s" d="M232 520h176v-40q0 -28 -17 -40.5t-55 -12.5h-104q-35 0 -51.5 -16.5t-16.5 -41.5q0 -45 49 -60l92 -30q128 -39 128 -152q0 -74 -51.5 -115.5t-141.5 -41.5h-189v37q0 57 68 57h121q35 0 56 16t21 47q0 46 -47 61l-88 29q-69 23 -101.5 58.5t-32.5 93.5q0 60 47 105.5 t137 45.5z"/>
<glyph glyph-name="Korea1.85" horiz-adv-x="367" unicode="t" d="M277 -30h-25q-81 0 -116 38t-35 115v304h-87v93h87v180h116v-180h124v-38q0 -27 -15.5 -41t-58.5 -14h-50v-304q0 -59 49 -59h83v-38q0 -56 -72 -56z"/>
<glyph glyph-name="Korea1.86" horiz-adv-x="562" unicode="u" d="M493 -30h-223q-109 0 -157 44.5t-48 155.5v350h115v-350q0 -64 19.5 -85t70.5 -21h107v456h116v-550z"/>
<glyph glyph-name="Korea1.87" horiz-adv-x="518" unicode="v" d="M321 -30h-77q-27 0 -42 11.5t-24 37.5l-167 501h112l137 -423l134 423h109z"/>
<glyph glyph-name="Korea1.88" horiz-adv-x="736" unicode="w" d="M621 520h108l-141 -550h-63q-55 0 -69 56l-89 327l-106 -383h-59q-35 0 -49 14t-22 45l-126 491h108l94 -412l108 390h104l107 -389z"/>
<glyph glyph-name="Korea1.89" horiz-adv-x="566" unicode="x" d="M145 -30h-130l200 276l-194 274h126l132 -189l132 189h130l-195 -274l201 -276h-127l-137 194z"/>
<glyph glyph-name="Korea1.90" horiz-adv-x="562" unicode="y" d="M317 -239h-228v40q0 32 15.5 45t54.5 13h158q60 0 60 54v65q-54 -5 -137 -8h-10q-166 0 -166 179v371h116v-370q0 -44 13.5 -64.5t47.5 -20.5h2q47 1 134 9v446h116v-608q0 -68 -43.5 -109.5t-132.5 -41.5z"/>
<glyph glyph-name="Korea1.91" horiz-adv-x="505" unicode="z" d="M167 64h295v-52q0 -42 -46 -42h-380v88l282 369h-269v93h401v-88z"/>
<glyph glyph-name="Korea1.92" horiz-adv-x="452" unicode="{" d="M387 14v-87h-79q-127 0 -127 129v201q0 50 -82 54v89q82 2 82 53v204q0 65 33.5 99.5t97.5 34.5h75v-88q-49 -1 -72 -11t-23 -36v-197q0 -72 -42 -106q42 -35 42 -102v-190q0 -29 20 -38t75 -9z"/>
<glyph glyph-name="Korea1.93" horiz-adv-x="350" unicode="|" d="M128 767h107v-819h-107v819z"/>
<glyph glyph-name="Korea1.94" horiz-adv-x="452" unicode="}" d="M75 -73v87q55 0 75 9t20 38v190q0 67 42 102q-42 34 -42 106v197q0 26 -23 36t-72 11v88h75q64 0 97.5 -34.5t33.5 -99.5v-204q0 -51 82 -53v-89q-82 -4 -82 -54v-201q0 -129 -127 -129h-79z"/>
<glyph glyph-name="Korea1.95" horiz-adv-x="726" unicode="~" d="M567 415h107q0 -87 -45.5 -141.5t-138.5 -54.5q-96 0 -161 83q-44 53 -79 53q-36 0 -57 -26t-21 -76h-110q3 90 52 143t134 53q54 0 91.5 -23t79.5 -72q34 -41 69 -41q75 0 79 102z"/>
<glyph glyph-name="Korea1.98" horiz-adv-x="868" unicode="©" d="M430 186h156v-37q0 -27 -14.5 -42t-57.5 -15h-84q-93 0 -150.5 50.5t-57.5 135.5v126q0 85 58 136.5t150 51.5h152v-35q0 -29 -13.5 -44t-55.5 -15h-83q-44 0 -68 -24t-24 -70v-125q0 -43 24 -68t68 -25zM134 346q0 -136 83 -220t217 -84q136 0 218.5 83.5t82.5 220.5 q0 136 -82.5 219t-218.5 83q-134 0 -217 -83t-83 -219zM38 346q0 174 111 283t287 109q175 0 286 -109t111 -283t-111 -283t-286 -109q-176 0 -287 109t-111 283z"/>
<glyph glyph-name="Korea1.104" horiz-adv-x="333" unicode="·" d="M103 418h127v-128h-127v128z"/>
<glyph glyph-name="Korea1.107" horiz-adv-x="546" unicode="¨" d="M346 701h126v-127h-126v127zM73 701h126v-127h-126v127z"/>
<glyph glyph-name="Korea1.109" horiz-adv-x="333" unicode="­" d="M17 412h299v-95h-299v95z"/>
<glyph glyph-name="Korea1.130" horiz-adv-x="618" unicode="±" d="M544 -30h-477v94h477v-94zM246 603h117v-181h190v-94h-190v-184h-117v184h-188v94h188v181z"/>
<glyph glyph-name="Korea1.131" horiz-adv-x="597" unicode="×" d="M299 264l-149 -148l-70 70l147 149l-148 149l72 69l148 -147l148 147l69 -70l-147 -148l148 -148l-70 -71z"/>
<glyph glyph-name="Korea1.132" horiz-adv-x="507" unicode="÷" d="M187 582h126v-127h-126v127zM187 227h126v-127h-126v127zM477 294h-448v93h448v-93z"/>
<glyph glyph-name="Korea1.138" horiz-adv-x="382" unicode="°" d="M139 595q0 -25 14 -39t37 -14q24 0 38 14t14 39q0 24 -14.5 39t-37.5 15t-37 -15t-14 -39zM48 595q0 60 40.5 97.5t102.5 37.5q61 0 102 -38t41 -97q0 -60 -40.5 -97.5t-102.5 -37.5t-102.5 37.5t-40.5 97.5z"/>
<glyph glyph-name="Korea1.143" horiz-adv-x="920" unicode="¢" d="M375 332v-175q0 -43 24 -69l88 339h-21q-91 0 -91 -95zM511 520l31 121h108l-32 -121h39v-34q0 -28 -12 -43t-51 -16l-94 -363h161v-37q0 -28 -14 -42.5t-58 -14.5h-113l-29 -112h-107l33 129q-53 20 -83.5 64t-30.5 105v176q0 85 57.5 136.5t149.5 51.5h45z"/>
<glyph glyph-name="Korea1.144" horiz-adv-x="920" unicode="£" d="M193 254v83h57q-4 32 -4 65q0 35 5 58q17 82 75 133t136 51h10q85 -5 154 -75q16 -16 29 -53t15 -69h-102q0 34 -28 68.5t-75 34.5q-38 0 -66 -22.5t-38 -56.5q-7 -22 -7 -77q0 -31 1 -57h222v-83l-214 -3q2 -32 2 -44q0 -97 -23 -162h190q23 0 36.5 1.5t29.5 9.5t23 24 q7 19 7 58h92q0 -48 -7 -69q-8 -32 -23 -54.5t-32 -34.5t-44.5 -18.5t-50.5 -8t-61 -1.5h-337v94h69q11 23 20.5 70.5t9.5 93.5q0 22 -3 44h-68z"/>
<glyph glyph-name="Korea1.145" horiz-adv-x="920" unicode="¥" d="M627 98h-112v-128h-52q-35 0 -50 13.5t-15 47.5v67h-185v94h185v73l-1 1h-184v93h130l-208 357h128l196 -339l197 339h128l-214 -357h129v-36q0 -28 -14 -42.5t-58 -14.5h-112v-74h184v-37q0 -28 -14 -42.5t-58 -14.5z"/>
<glyph glyph-name="Korea1.155" horiz-adv-x="474" unicode="§" d="M192 263h41q35 0 56 17.5t21 48.5q0 29 -20 46h-65q-35 0 -51.5 -16t-16.5 -41q0 -39 35 -55zM225 716h176v-40q0 -28 -17 -40.5t-54 -12.5h-105q-68 0 -68 -56q0 -45 49 -60l86 -26q134 -41 134 -152q0 -86 -67 -128q67 -45 67 -120t-51.5 -117.5t-141.5 -42.5h-189v36 q0 57 68 57h121q35 0 56 17.5t21 49.5q0 41 -47 56l-86 29q-69 23 -102.5 59t-33.5 93q0 82 70 123q-70 43 -70 126q0 59 47 104t137 45z"/>
<glyph glyph-name="Korea1.176" horiz-adv-x="920" unicode="«" d="M773 -32l-477 324l480 308l44 -62l-386 -250q333 -224 381 -256zM575 -32l-476 324l480 308l44 -62l-387 -249q72 -48 207.5 -139t175.5 -118z"/>
<glyph glyph-name="Korea1.177" horiz-adv-x="920" unicode="»" d="M100 538l42 64l480 -310l-475 -324l-43 64l381 256q-62 40 -193 125t-192 125zM296 538l44 64l480 -310l-476 -324l-43 64l381 256q-62 40 -193 125t-193 125z"/>
<glyph glyph-name="Korea1.194" horiz-adv-x="920" unicode="¬" d="M53 113v78h815v-332h-87v254h-728z"/>
<glyph glyph-name="Korea1.199" horiz-adv-x="333" unicode="´" d="M66 584l81 146h122l-86 -115q-23 -31 -68 -31h-49z"/>
<glyph glyph-name="Korea1.206" horiz-adv-x="333" unicode="¸" d="M103 -113l28 93h95l-16 -52q71 -13 71 -71q0 -45 -38.5 -70.5t-110.5 -25.5q-40 0 -81 11l12 68q31 -6 63 -6q54 0 54 27q0 26 -77 26z"/>
<glyph glyph-name="Korea1.208" horiz-adv-x="347" unicode="¡" d="M108 716h127v-127h-127v127zM106 -54l16 527h101l18 -527h-135z"/>
<glyph glyph-name="Korea1.209" horiz-adv-x="549" unicode="¿" d="M365 589h-126v127h126v-127zM244 453v52h115v-54q0 -49 -9.5 -78.5t-35.5 -47.5l-88 -60q-67 -46 -67 -123q0 -46 40.5 -74t104.5 -28q75 0 185 33l5 -94q-90 -33 -188 -33q-114 0 -188.5 52.5t-74.5 140.5q0 120 95 188l83 59q15 11 19 25t4 42z"/>
<glyph glyph-name="Korea1.214" horiz-adv-x="573" unicode="¤" d="M402 265v31q0 56 -27 90t-83 34q-52 0 -81 -32t-29 -92v-31q0 -61 28.5 -93t81.5 -32t81.5 32t28.5 93zM292 509q73 0 124 -24l50 51l73 -70l-50 -51q25 -50 25 -119v-31q0 -73 -25 -119l50 -51l-73 -70l-49 50q-51 -24 -125 -24q-82 0 -133 29l-53 -55l-74 70l59 59 q-21 45 -21 111v31q0 63 20 109l-58 61l74 70l54 -56q51 29 132 29z"/>
<glyph glyph-name="Korea1.244" horiz-adv-x="548" unicode="¶" d="M189 -95v411q-66 11 -113 60.5t-47 132.5v11q2 94 56.5 145t150.5 51h240v-872h-46q-34 0 -49 14t-15 47v717h-68v-778h-45q-34 0 -49 14t-15 47z"/>
<glyph glyph-name="Korea1.666" horiz-adv-x="1000" unicode="Æ" d="M497 621h-66l-150 -340h216v340zM918 -30h-421v241q-30 -27 -78 -27h-181l-94 -214h-127l330 746h622v-34q0 -31 -13 -46t-51 -15h-291v-210h324v-36q0 -28 -13 -43t-50 -15h-261v-253h367v-36q0 -27 -13.5 -42.5t-49.5 -15.5z"/>
<glyph glyph-name="Korea1.667" horiz-adv-x="726" unicode="Ð" d="M411 621h-170v-229h164v-37q0 -28 -14.5 -43t-58.5 -15h-91v-233h170q58 0 92 29.5t34 80.5v336q0 54 -33.5 82.5t-92.5 28.5zM125 297h-94v95h94v324h286q120 0 181 -57t61 -149v-336q0 -92 -61 -148t-181 -56h-286v327z"/>
<glyph glyph-name="Korea1.668" horiz-adv-x="399" unicode="ª" d="M175 509q-31 0 -31 -29v-33q0 -24 31 -24h63v82q-33 4 -63 4zM337 607v-269h-162q-61 0 -95 27.5t-34 78.5v38q0 113 129 113q27 0 63 -4v16q0 26 -29 26h-80q-36 0 -47.5 11.5t-11.5 34.5v37h139q128 0 128 -109z"/>
<glyph glyph-name="Korea1.673" horiz-adv-x="702" unicode="Ø" d="M351 631q-84 0 -129 -58t-45 -155v-151q0 -86 28 -136l202 492q-27 8 -56 8zM525 268v151q0 79 -30 131l-200 -488q26 -6 56 -6q174 0 174 212zM351 730q55 0 96 -10l25 61h118l-44 -108q96 -77 96 -255v-151q0 -311 -291 -311q-51 0 -95 11l-28 -69h-118l47 115 q-97 76 -97 255v150q0 152 72.5 232t218.5 80z"/>
<glyph glyph-name="Korea1.675" horiz-adv-x="382" unicode="º" d="M241 480v97q0 64 -55 64t-55 -64v-97q0 -66 55 -66q26 0 40.5 17t14.5 49zM186 726q154 0 154 -149v-97q0 -149 -154 -149q-155 0 -155 149v97q0 149 155 149z"/>
<glyph glyph-name="Korea1.676" horiz-adv-x="620" unicode="Þ" d="M330 463h-139v-242h141q70 0 97.5 31t27.5 92q0 69 -30 94t-97 25zM191 127v-157h-51q-35 0 -50 13.5t-15 47.5v685h116v-157h131q126 0 188 -47.5t62 -164.5q0 -119 -59 -169.5t-183 -50.5h-139z"/>
<glyph glyph-name="Korea1.748" horiz-adv-x="800" unicode="½" d="M697 -44h-156q-32 0 -44.5 10.5t-12.5 40.5v44q0 48 41 78l99 72q25 19 25 50q0 17 -15 28t-40 11q-32 0 -106 -15v81q62 15 108 15q62 0 104 -31.5t42 -87.5q0 -66 -58 -111l-98 -72q-9 -8 -9 -25v-8h168v-36q0 -44 -48 -44zM220 678v-365h-46q-48 0 -48 49v274h-59v80 h111q42 0 42 -38zM80 -44l443 760h114l-444 -760h-113z"/>
<glyph glyph-name="Korea1.751" horiz-adv-x="800" unicode="¼" d="M606 100v138l-84 -138h84zM220 678v-365h-46q-48 0 -48 49v274h-59v80h111q42 0 42 -38zM699 100h35v-39q0 -37 -35 -40v-65h-46q-25 0 -36 12t-11 39v14h-184v70l140 235q20 33 58 33h79v-259zM116 -44l443 760h114l-444 -760h-113z"/>
<glyph glyph-name="Korea1.752" horiz-adv-x="800" unicode="¾" d="M161 730q62 0 102 -28t40 -88q0 -25 -14 -50.5t-31 -34.5q24 -12 38.5 -37t14.5 -53q0 -133 -148 -133h-7q-55 2 -111 11v35q0 41 40 41q8 0 12 -1q32 -4 59 -4q31 0 46 10t15 38q0 48 -57 48h-56q-21 0 -29 7.5t-8 26.5v47h93q48 0 48 48q0 35 -48 35q-30 0 -108 -13 l-2 79q69 16 111 16zM141 -44l443 760h114l-444 -760h-113zM615 100v138l-84 -138h84zM708 100h35v-39q0 -37 -35 -40v-65h-46q-25 0 -36 12t-11 39v14h-184v70l140 235q20 33 58 33h79v-259z"/>
<glyph glyph-name="Korea1.757" horiz-adv-x="855" unicode="æ" d="M479 348v-56h189q17 0 17 20v33q0 42 -27.5 68.5t-77.5 26.5q-45 0 -73 -26t-28 -66zM241 243q-37 0 -53.5 -15.5t-16.5 -50.5v-53q0 -60 70 -60h65q23 0 40 17t17 41v114q-64 7 -122 7zM558 64h224v-40q0 -28 -14 -41t-58 -13h-152q-94 0 -131 45q-34 -45 -104 -45h-83 q-87 0 -136 38.5t-49 111.5v61q0 160 175 160h10q69 -1 123 -8v34q0 60 -67 60h-130q-43 0 -57.5 13.5t-14.5 40.5v39h202q91 0 132 -40q54 54 152 54q97 0 159 -51t62 -138v-63q0 -84 -85 -84h-237v-54q0 -37 22.5 -58.5t56.5 -21.5z"/>
<glyph glyph-name="Korea1.759" horiz-adv-x="589" unicode="ð" d="M174 271v-97q0 -120 116 -120q66 0 94 27.5t28 91.5v102q0 61 -30 89.5t-91 28.5q-117 0 -117 -122zM349 720l80 71l68 -70l-52 -46q79 -66 79 -209v-305q0 -99 -60.5 -151.5t-170.5 -52.5h-3q-111 2 -170 53.5t-59 150.5v123q0 95 59 150t169 55q36 0 71 -11t52 -27v25 q0 89 -47 128l-106 -93l-68 69l63 56q-13 0 -40.5 -2t-45.5 -2q-29 0 -42.5 7.5t-13.5 34.5v47q76 9 148 9q46 0 89 -10z"/>
<glyph glyph-name="Korea1.766" horiz-adv-x="570" unicode="ø" d="M286 440q-52 0 -81 -31.5t-29 -91.5v-143q0 -24 5 -47l122 312q-2 0 -8 0.5t-9 0.5zM396 174v143q0 31 -9 56l-127 -322q8 -2 26 -2q53 0 81.5 31.5t28.5 93.5zM286 534q30 0 53 -4l34 86h110l-47 -120q76 -53 76 -179v-143q0 -218 -226 -218q-29 0 -61 5l-35 -90h-109 l50 128q-71 52 -71 175v143q0 217 226 217z"/>
<glyph glyph-name="Korea1.768" horiz-adv-x="629" unicode="ß" d="M189 504v-534h-51q-34 0 -48.5 13.5t-14.5 47.5v477q0 120 54.5 171t165.5 51q91 0 146.5 -43t55.5 -108q0 -69 -33 -129q-5 -9 -11.5 -20t-9.5 -16t-6.5 -12t-4.5 -10.5t-2 -8t-1 -9.5q0 -25 62 -75q59 -48 81.5 -88t22.5 -85q0 -73 -52.5 -121.5t-140.5 -48.5 q-121 0 -177 88l79 68q37 -60 97 -60q31 0 51.5 21.5t20.5 51.5q0 47 -51 90q-63 52 -88.5 83.5t-25.5 61.5q0 43 36 104q37 63 37 106q0 28 -24.5 49t-63.5 21q-104 0 -104 -136z"/>
<glyph glyph-name="Korea1.769" horiz-adv-x="549" unicode="þ" d="M289 427h-98v-363h97q43 0 68 24t25 70v174q0 47 -25 71t-67 24zM75 -177v898h116v-201h97q102 0 155 -45t53 -133v-193q0 -179 -208 -179h-97v-209h-54q-33 0 -47.5 14.5t-14.5 47.5z"/>
<glyph glyph-name="Korea1.842" horiz-adv-x="333" unicode="¹" d="M243 678v-365h-46q-48 0 -48 49v274h-59v80h111q42 0 42 -38z"/>
<glyph glyph-name="Korea1.843" horiz-adv-x="333" unicode="²" d="M249 315h-156q-32 0 -44.5 10.5t-12.5 40.5v44q0 48 41 78l99 72q25 19 25 50q0 17 -15 28t-40 11q-32 0 -106 -15v81q62 15 108 15q62 0 104 -31.5t42 -87.5q0 -66 -58 -111l-98 -72q-9 -8 -9 -25v-8h168v-36q0 -44 -48 -44z"/>
<glyph glyph-name="Korea1.844" horiz-adv-x="333" unicode="³" d="M149 730q62 0 102 -28t40 -88q0 -25 -14 -50.5t-31 -34.5q24 -12 38.5 -37t14.5 -53q0 -133 -148 -133h-7q-55 2 -111 11v35q0 41 40 41q8 0 12 -1q32 -4 59 -4q31 0 46 10t15 38q0 48 -57 48h-56q-21 0 -29 7.5t-8 26.5v47h93q48 0 48 48q0 35 -48 35q-30 0 -108 -13 l-2 79q69 16 111 16z"/>
<glyph glyph-name="Korea1.18352" horiz-adv-x="266" unicode="¦" d="M186 252v-282h-106v282h106zM186 716v-280h-106v280h106z"/>
<glyph glyph-name="Korea1.18353" horiz-adv-x="873" unicode="®" d="M469 500h-97v-123h97q50 0 50 50v26q0 47 -50 47zM134 346q0 -136 83 -220t217 -84q99 0 171 46h-65l-96 200h-72v-200h-50q-28 0 -41 12t-13 41v448h201q75 0 115 -34.5t40 -90.5v-43q0 -38 -19 -72t-58 -47l93 -188q95 84 95 232q0 136 -82.5 219t-218.5 83 q-134 0 -217 -83t-83 -219zM38 346q0 174 111 283t287 109q175 0 286 -109t111 -283t-111 -283t-286 -109q-176 0 -287 109t-111 283z"/>
<glyph glyph-name="Korea1.18354" horiz-adv-x="501" unicode="¯" d="M510 800v-95h-520v95h520z"/>
<glyph glyph-name="Korea1.18355" horiz-adv-x="571" unicode="µ" d="M499 -30h-223q-54 0 -90 10v-204h-52q-34 0 -49 13.5t-15 47.5l1 683h115v-363q0 -55 20 -74t70 -19h107v456h116v-550z"/>
<glyph glyph-name="Korea1.18356" horiz-adv-x="668" unicode="À" d="M228 930h122l86 -146h-49q-45 0 -68 31zM334 584l-98 -303h195zM533 -30l-80 249q-31 -35 -85 -35h-163l-68 -214h-120l250 746h90q20 0 36 -12t21 -29l238 -705h-119z"/>
<glyph glyph-name="Korea1.18357" horiz-adv-x="668" unicode="Á" d="M318 930h122l-91 -115q-15 -17 -29 -24t-39 -7h-49zM334 584l-98 -303h195zM533 -30l-80 249q-31 -35 -85 -35h-163l-68 -214h-120l250 746h90q20 0 36 -12t21 -29l238 -705h-119z"/>
<glyph glyph-name="Korea1.18358" horiz-adv-x="668" unicode="Â" d="M335 861l-62 -80h-113l123 144h104l120 -144h-114zM334 584l-98 -303h195zM533 -30l-80 249q-31 -35 -85 -35h-163l-68 -214h-120l250 746h90q20 0 36 -12t21 -29l238 -705h-119z"/>
<glyph glyph-name="Korea1.18359" horiz-adv-x="668" unicode="Ã" d="M263 910q35 0 87 -27q40 -20 51 -20q35 0 35 47h92q0 -61 -33.5 -97.5t-88.5 -36.5q-33 0 -87 28q-40 20 -51 20q-17 0 -27.5 -12.5t-11.5 -36.5h-91q0 63 35 99t90 36zM334 584l-98 -303h195zM533 -30l-80 249q-31 -35 -85 -35h-163l-68 -214h-120l250 746h90 q20 0 36 -12t21 -29l238 -705h-119z"/>
<glyph glyph-name="Korea1.18360" horiz-adv-x="668" unicode="Ä" d="M296 900v-119h-121v119h121zM491 900v-119h-121v119h121zM334 584l-98 -303h195zM533 -30l-80 249q-31 -35 -85 -35h-163l-68 -214h-120l250 746h90q20 0 36 -12t21 -29l238 -705h-119z"/>
<glyph glyph-name="Korea1.18361" horiz-adv-x="668" unicode="Å" d="M220 876q0 48 32.5 79t81.5 31q50 0 82.5 -31t32.5 -79t-32.5 -79t-82.5 -31q-49 0 -81.5 31t-32.5 79zM293 876q0 -18 12 -29.5t29 -11.5q18 0 30 11.5t12 29.5q0 17 -12.5 29.5t-29.5 12.5t-29 -12.5t-12 -29.5zM334 584l-98 -303h195zM533 -30l-80 249 q-31 -35 -85 -35h-163l-68 -214h-120l250 746h90q20 0 36 -12t21 -29l238 -705h-119z"/>
<glyph glyph-name="Korea1.18362" horiz-adv-x="583" unicode="Ç" d="M547 64v-37q0 -26 -16 -41.5t-59 -15.5h-100l-13 -42q71 -13 71 -71q0 -45 -38.5 -70.5t-110.5 -25.5q-40 0 -81 11l12 68q31 -6 63 -6q54 0 54 27q0 26 -77 26l25 83h-10q-90 0 -148 54t-58 142v357q0 90 60.5 141.5t168.5 51.5h247v-36q0 -29 -15 -44t-59 -15h-170 q-115 0 -115 -111v-337q0 -46 24.5 -77.5t68.5 -31.5h276z"/>
<glyph glyph-name="Korea1.18363" horiz-adv-x="602" unicode="È" d="M196 930h122l86 -146h-49q-45 0 -68 31zM495 -30h-421v746h472v-34q0 -31 -13 -46t-51 -15h-291v-210h324v-36q0 -28 -13 -43t-50 -15h-261v-253h367v-36q0 -27 -13.5 -42.5t-49.5 -15.5z"/>
<glyph glyph-name="Korea1.18364" horiz-adv-x="602" unicode="É" d="M287 930h122l-91 -115q-15 -17 -29 -24t-39 -7h-49zM495 -30h-421v746h472v-34q0 -31 -13 -46t-51 -15h-291v-210h324v-36q0 -28 -13 -43t-50 -15h-261v-253h367v-36q0 -27 -13.5 -42.5t-49.5 -15.5z"/>
<glyph glyph-name="Korea1.18365" horiz-adv-x="602" unicode="Ê" d="M307 861l-62 -80h-113l123 144h104l120 -144h-114zM495 -30h-421v746h472v-34q0 -31 -13 -46t-51 -15h-291v-210h324v-36q0 -28 -13 -43t-50 -15h-261v-253h367v-36q0 -27 -13.5 -42.5t-49.5 -15.5z"/>
<glyph glyph-name="Korea1.18366" horiz-adv-x="602" unicode="Ë" d="M277 900v-119h-121v119h121zM472 900v-119h-121v119h121zM495 -30h-421v746h472v-34q0 -31 -13 -46t-51 -15h-291v-210h324v-36q0 -28 -13 -43t-50 -15h-261v-253h367v-36q0 -27 -13.5 -42.5t-49.5 -15.5z"/>
<glyph glyph-name="Korea1.18367" horiz-adv-x="282" unicode="Ì" d="M32 930h122l86 -146h-49q-45 0 -68 31zM84 716h118v-746h-55q-34 0 -48.5 14t-14.5 47v685z"/>
<glyph glyph-name="Korea1.18368" horiz-adv-x="282" unicode="Í" d="M123 930h122l-91 -115q-15 -17 -29 -24t-39 -7h-49zM84 716h118v-746h-55q-34 0 -48.5 14t-14.5 47v685z"/>
<glyph glyph-name="Korea1.18369" horiz-adv-x="282" unicode="Î" d="M143 861l-62 -80h-113l123 144h104l120 -144h-114zM84 716h118v-746h-55q-34 0 -48.5 14t-14.5 47v685z"/>
<glyph glyph-name="Korea1.18370" horiz-adv-x="282" unicode="Ï" d="M104 900v-119h-121v119h121zM299 900v-119h-121v119h121zM84 716h118v-746h-55q-34 0 -48.5 14t-14.5 47v685z"/>
<glyph glyph-name="Korea1.18371" horiz-adv-x="677" unicode="Ñ" d="M263 910q35 0 87 -27q40 -20 51 -20q35 0 35 47h92q0 -61 -33.5 -97.5t-88.5 -36.5q-33 0 -87 28q-40 20 -51 20q-17 0 -27.5 -12.5t-11.5 -36.5h-91q0 63 35 99t90 36zM74 31v685h312q113 0 164.5 -42.5t51.5 -156.5v-547h-53q-34 0 -49 14t-15 47v487q0 59 -21.5 81 t-77.5 22h-195v-651h-54q-34 0 -48.5 14t-14.5 47z"/>
<glyph glyph-name="Korea1.18372" horiz-adv-x="702" unicode="Ò" d="M236 930h122l86 -146h-49q-45 0 -68 31zM524 268v151q0 103 -39 153q-23 30 -53.5 44.5t-81.5 14.5t-82 -15t-54 -46q-38 -54 -38 -152v-151q0 -211 167 -211h7h7q167 0 167 212zM350 730q291 0 291 -312v-151q0 -311 -291 -311q-146 0 -218.5 80t-72.5 232v150 q0 152 72.5 232t218.5 80z"/>
<glyph glyph-name="Korea1.18373" horiz-adv-x="702" unicode="Ó" d="M327 930h122l-91 -115q-15 -17 -29 -24t-39 -7h-49zM524 268v151q0 103 -39 153q-23 30 -53.5 44.5t-81.5 14.5t-82 -15t-54 -46q-38 -54 -38 -152v-151q0 -211 167 -211h7h7q167 0 167 212zM350 730q291 0 291 -312v-151q0 -311 -291 -311q-146 0 -218.5 80t-72.5 232 v150q0 152 72.5 232t218.5 80z"/>
<glyph glyph-name="Korea1.18374" horiz-adv-x="702" unicode="Ô" d="M347 861l-62 -80h-113l123 144h104l120 -144h-114zM524 268v151q0 103 -39 153q-23 30 -53.5 44.5t-81.5 14.5t-82 -15t-54 -46q-38 -54 -38 -152v-151q0 -211 167 -211h7h7q167 0 167 212zM350 730q291 0 291 -312v-151q0 -311 -291 -311q-146 0 -218.5 80t-72.5 232 v150q0 152 72.5 232t218.5 80z"/>
<glyph glyph-name="Korea1.18375" horiz-adv-x="702" unicode="Õ" d="M272 910q35 0 87 -27q40 -20 51 -20q35 0 35 47h92q0 -61 -33.5 -97.5t-88.5 -36.5q-33 0 -87 28q-40 20 -51 20q-17 0 -27.5 -12.5t-11.5 -36.5h-91q0 63 35 99t90 36zM524 268v151q0 103 -39 153q-23 30 -53.5 44.5t-81.5 14.5t-82 -15t-54 -46q-38 -54 -38 -152v-151 q0 -211 167 -211h7h7q167 0 167 212zM350 730q291 0 291 -312v-151q0 -311 -291 -311q-146 0 -218.5 80t-72.5 232v150q0 152 72.5 232t218.5 80z"/>
<glyph glyph-name="Korea1.18376" horiz-adv-x="702" unicode="Ö" d="M318 900v-119h-121v119h121zM513 900v-119h-121v119h121zM524 268v151q0 103 -39 153q-23 30 -53.5 44.5t-81.5 14.5t-82 -15t-54 -46q-38 -54 -38 -152v-151q0 -211 167 -211h7h7q167 0 167 212zM350 730q291 0 291 -312v-151q0 -311 -291 -311q-146 0 -218.5 80 t-72.5 232v150q0 152 72.5 232t218.5 80z"/>
<glyph glyph-name="Korea1.18377" horiz-adv-x="684" unicode="Ù" d="M238 930h122l86 -146h-49q-45 0 -68 31zM603 716v-746h-312q-113 0 -164.5 42.5t-51.5 156.5v547h117v-548q0 -60 21.5 -82t77.5 -22h195v652h117z"/>
<glyph glyph-name="Korea1.18378" horiz-adv-x="684" unicode="Ú" d="M329 930h122l-91 -115q-15 -17 -29 -24t-39 -7h-49zM603 716v-746h-312q-113 0 -164.5 42.5t-51.5 156.5v547h117v-548q0 -60 21.5 -82t77.5 -22h195v652h117z"/>
<glyph glyph-name="Korea1.18379" horiz-adv-x="684" unicode="Û" d="M349 861l-62 -80h-113l123 144h104l120 -144h-114zM603 716v-746h-312q-113 0 -164.5 42.5t-51.5 156.5v547h117v-548q0 -60 21.5 -82t77.5 -22h195v652h117z"/>
<glyph glyph-name="Korea1.18380" horiz-adv-x="684" unicode="Ü" d="M319 900v-119h-121v119h121zM514 900v-119h-121v119h121zM603 716v-746h-312q-113 0 -164.5 42.5t-51.5 156.5v547h117v-548q0 -60 21.5 -82t77.5 -22h195v652h117z"/>
<glyph glyph-name="Korea1.18381" horiz-adv-x="683" unicode="Ý" d="M328 930h122l-91 -115q-15 -17 -29 -24t-39 -7h-49zM396 267v-297h-52q-35 0 -50 13.5t-15 47.5v234l-263 451h128l196 -339l197 339h128z"/>
<glyph glyph-name="Korea1.18382" horiz-adv-x="544" unicode="à" d="M162 730h122l86 -146h-49q-45 0 -68 31zM241 243q-37 0 -53.5 -15.5t-16.5 -50.5v-53q0 -60 70 -60h122v172q-64 7 -122 7zM479 366v-396h-239q-87 0 -136 38.5t-49 111.5v61q0 160 175 160h10q69 -1 123 -8v33q0 61 -67 61h-130q-43 0 -57.5 13.5t-14.5 40.5v39h202 q183 0 183 -154z"/>
<glyph glyph-name="Korea1.18383" horiz-adv-x="544" unicode="á" d="M253 730h122l-91 -115q-15 -17 -29 -24t-39 -7h-49zM241 243q-37 0 -53.5 -15.5t-16.5 -50.5v-53q0 -60 70 -60h122v172q-64 7 -122 7zM479 366v-396h-239q-87 0 -136 38.5t-49 111.5v61q0 160 175 160h10q69 -1 123 -8v33q0 61 -67 61h-130q-43 0 -57.5 13.5t-14.5 40.5 v39h202q183 0 183 -154z"/>
<glyph glyph-name="Korea1.18384" horiz-adv-x="544" unicode="â" d="M273 661l-62 -80h-113l123 144h104l120 -144h-114zM241 243q-37 0 -53.5 -15.5t-16.5 -50.5v-53q0 -60 70 -60h122v172q-64 7 -122 7zM479 366v-396h-239q-87 0 -136 38.5t-49 111.5v61q0 160 175 160h10q69 -1 123 -8v33q0 61 -67 61h-130q-43 0 -57.5 13.5t-14.5 40.5 v39h202q183 0 183 -154z"/>
<glyph glyph-name="Korea1.18385" horiz-adv-x="544" unicode="ã" d="M198 710q35 0 87 -27q40 -20 51 -20q35 0 35 47h92q0 -61 -33.5 -97.5t-88.5 -36.5q-33 0 -87 28q-40 20 -51 20q-17 0 -27.5 -12.5t-11.5 -36.5h-91q0 63 35 99t90 36zM241 243q-37 0 -53.5 -15.5t-16.5 -50.5v-53q0 -60 70 -60h122v172q-64 7 -122 7zM479 366v-396 h-239q-87 0 -136 38.5t-49 111.5v61q0 160 175 160h10q69 -1 123 -8v33q0 61 -67 61h-130q-43 0 -57.5 13.5t-14.5 40.5v39h202q183 0 183 -154z"/>
<glyph glyph-name="Korea1.18386" horiz-adv-x="544" unicode="ä" d="M244 700v-119h-121v119h121zM439 700v-119h-121v119h121zM241 243q-37 0 -53.5 -15.5t-16.5 -50.5v-53q0 -60 70 -60h122v172q-64 7 -122 7zM479 366v-396h-239q-87 0 -136 38.5t-49 111.5v61q0 160 175 160h10q69 -1 123 -8v33q0 61 -67 61h-130q-43 0 -57.5 13.5 t-14.5 40.5v39h202q183 0 183 -154z"/>
<glyph glyph-name="Korea1.18387" horiz-adv-x="544" unicode="å" d="M154 676q0 48 32.5 79t81.5 31q50 0 82.5 -31t32.5 -79t-32.5 -79t-82.5 -31q-49 0 -81.5 31t-32.5 79zM227 676q0 -18 12 -29.5t29 -11.5q18 0 30 11.5t12 29.5q0 17 -12.5 29.5t-29.5 12.5t-29 -12.5t-12 -29.5zM241 243q-37 0 -53.5 -15.5t-16.5 -50.5v-53 q0 -60 70 -60h122v172q-64 7 -122 7zM479 366v-396h-239q-87 0 -136 38.5t-49 111.5v61q0 160 175 160h10q69 -1 123 -8v33q0 61 -67 61h-130q-43 0 -57.5 13.5t-14.5 40.5v39h202q183 0 183 -154z"/>
<glyph glyph-name="Korea1.18388" horiz-adv-x="505" unicode="ç" d="M269 64h196v-37q0 -28 -14 -42.5t-58 -14.5h-33l-13 -42q71 -13 71 -71q0 -45 -38.5 -70.5t-110.5 -25.5q-40 0 -81 11l12 68q31 -6 63 -6q54 0 54 27q0 26 -77 26l25 83q-91 2 -147 51t-56 135v176q0 86 57.5 137t149.5 51h191v-34q0 -29 -13 -44t-56 -15h-122 q-91 0 -91 -95v-175q0 -43 24 -68t67 -25z"/>
<glyph glyph-name="Korea1.18389" horiz-adv-x="549" unicode="è" d="M166 730h122l86 -146h-49q-45 0 -68 31zM171 354v-62h190q7 0 12 5.5t5 14.5v42q0 40 -27.5 63t-78.5 23q-46 0 -73.5 -23.5t-27.5 -62.5zM250 64h224v-40q0 -28 -13.5 -41t-57.5 -13h-153q-89 0 -142 48.5t-53 130.5v186q0 101 61 150t156 49q99 0 160 -47.5t61 -132.5 v-72q0 -38 -22 -61t-65 -23h-235v-49q0 -39 22.5 -62t56.5 -23z"/>
<glyph glyph-name="Korea1.18390" horiz-adv-x="549" unicode="é" d="M267 730h122l-91 -115q-15 -17 -29 -24t-39 -7h-49zM171 354v-62h190q7 0 12 5.5t5 14.5v42q0 40 -27.5 63t-78.5 23q-46 0 -73.5 -23.5t-27.5 -62.5zM250 64h224v-40q0 -28 -13.5 -41t-57.5 -13h-153q-89 0 -142 48.5t-53 130.5v186q0 101 61 150t156 49q99 0 160 -47.5 t61 -132.5v-72q0 -38 -22 -61t-65 -23h-235v-49q0 -39 22.5 -62t56.5 -23z"/>
<glyph glyph-name="Korea1.18391" horiz-adv-x="549" unicode="ê" d="M277 661l-62 -80h-113l123 144h104l120 -144h-114zM171 354v-62h190q7 0 12 5.5t5 14.5v42q0 40 -27.5 63t-78.5 23q-46 0 -73.5 -23.5t-27.5 -62.5zM250 64h224v-40q0 -28 -13.5 -41t-57.5 -13h-153q-89 0 -142 48.5t-53 130.5v186q0 101 61 150t156 49q99 0 160 -47.5 t61 -132.5v-72q0 -38 -22 -61t-65 -23h-235v-49q0 -39 22.5 -62t56.5 -23z"/>
<glyph glyph-name="Korea1.18392" horiz-adv-x="549" unicode="ë" d="M248 700v-119h-121v119h121zM443 700v-119h-121v119h121zM171 354v-62h190q7 0 12 5.5t5 14.5v42q0 40 -27.5 63t-78.5 23q-46 0 -73.5 -23.5t-27.5 -62.5zM250 64h224v-40q0 -28 -13.5 -41t-57.5 -13h-153q-89 0 -142 48.5t-53 130.5v186q0 101 61 150t156 49 q99 0 160 -47.5t61 -132.5v-72q0 -38 -22 -61t-65 -23h-235v-49q0 -39 22.5 -62t56.5 -23z"/>
<glyph glyph-name="Korea1.18393" horiz-adv-x="257" unicode="ì" d="M69 520h116v-550h-52q-35 0 -49.5 14t-14.5 48v488zM19 730h122l86 -146h-49q-45 0 -68 31z"/>
<glyph glyph-name="Korea1.18394" horiz-adv-x="257" unicode="í" d="M69 520h116v-550h-52q-35 0 -49.5 14t-14.5 48v488zM105 730h122l-91 -115q-15 -17 -29 -24t-39 -7h-49z"/>
<glyph glyph-name="Korea1.18395" horiz-adv-x="257" unicode="î" d="M69 520h116v-550h-52q-35 0 -49.5 14t-14.5 48v488zM130 661l-62 -80h-113l123 144h104l120 -144h-114z"/>
<glyph glyph-name="Korea1.18396" horiz-adv-x="257" unicode="ï" d="M69 520h116v-550h-52q-35 0 -49.5 14t-14.5 48v488zM92 700v-119h-121v119h121zM287 700v-119h-121v119h121z"/>
<glyph glyph-name="Korea1.18397" horiz-adv-x="571" unicode="ñ" d="M200 710q35 0 87 -27q40 -20 51 -20q35 0 35 47h92q0 -61 -33.5 -97.5t-88.5 -36.5q-33 0 -87 28q-40 20 -51 20q-17 0 -27.5 -12.5t-11.5 -36.5h-91q0 63 35 99t90 36zM70 520h241q105 0 147.5 -40t42.5 -135v-375h-53q-34 0 -48.5 14t-14.5 48v313q0 47 -16 64.5 t-58 17.5h-125v-457h-51q-35 0 -50 14t-15 48v488z"/>
<glyph glyph-name="Korea1.18398" horiz-adv-x="574" unicode="ò" d="M169 730h122l86 -146h-49q-45 0 -68 31zM396 176v139q0 63 -23.5 94t-86.5 31q-56 0 -83 -28t-27 -92v-144q0 -66 27 -96.5t83 -30.5t83 29.5t27 97.5zM286 534q226 0 226 -219v-139q0 -113 -56.5 -166.5t-169.5 -53.5q-226 0 -226 220v139q0 219 226 219z"/>
<glyph glyph-name="Korea1.18399" horiz-adv-x="574" unicode="ó" d="M260 730h122l-91 -115q-15 -17 -29 -24t-39 -7h-49zM396 176v139q0 63 -23.5 94t-86.5 31q-56 0 -83 -28t-27 -92v-144q0 -66 27 -96.5t83 -30.5t83 29.5t27 97.5zM286 534q226 0 226 -219v-139q0 -113 -56.5 -166.5t-169.5 -53.5q-226 0 -226 220v139q0 219 226 219z "/>
<glyph glyph-name="Korea1.18400" horiz-adv-x="574" unicode="ô" d="M288 661l-62 -80h-113l123 144h104l120 -144h-114zM396 176v139q0 63 -23.5 94t-86.5 31q-56 0 -83 -28t-27 -92v-144q0 -66 27 -96.5t83 -30.5t83 29.5t27 97.5zM286 534q226 0 226 -219v-139q0 -113 -56.5 -166.5t-169.5 -53.5q-226 0 -226 220v139q0 219 226 219z"/>
<glyph glyph-name="Korea1.18401" horiz-adv-x="574" unicode="õ" d="M215 710q35 0 87 -27q40 -20 51 -20q35 0 35 47h92q0 -61 -33.5 -97.5t-88.5 -36.5q-33 0 -87 28q-40 20 -51 20q-17 0 -27.5 -12.5t-11.5 -36.5h-91q0 63 35 99t90 36zM396 176v139q0 63 -23.5 94t-86.5 31q-56 0 -83 -28t-27 -92v-144q0 -66 27 -96.5t83 -30.5t83 29.5 t27 97.5zM286 534q226 0 226 -219v-139q0 -113 -56.5 -166.5t-169.5 -53.5q-226 0 -226 220v139q0 219 226 219z"/>
<glyph glyph-name="Korea1.18402" horiz-adv-x="574" unicode="ö" d="M251 700v-119h-121v119h121zM446 700v-119h-121v119h121zM396 176v139q0 63 -23.5 94t-86.5 31q-56 0 -83 -28t-27 -92v-144q0 -66 27 -96.5t83 -30.5t83 29.5t27 97.5zM286 534q226 0 226 -219v-139q0 -113 -56.5 -166.5t-169.5 -53.5q-226 0 -226 220v139 q0 219 226 219z"/>
<glyph glyph-name="Korea1.18403" horiz-adv-x="562" unicode="ù" d="M169 730h122l86 -146h-49q-45 0 -68 31zM493 -30h-223q-109 0 -157 44.5t-48 155.5v350h115v-350q0 -64 19.5 -85t70.5 -21h107v456h116v-550z"/>
<glyph glyph-name="Korea1.18404" horiz-adv-x="562" unicode="ú" d="M260 730h122l-91 -115q-15 -17 -29 -24t-39 -7h-49zM493 -30h-223q-109 0 -157 44.5t-48 155.5v350h115v-350q0 -64 19.5 -85t70.5 -21h107v456h116v-550z"/>
<glyph glyph-name="Korea1.18405" horiz-adv-x="562" unicode="û" d="M280 661l-62 -80h-113l123 144h104l120 -144h-114zM493 -30h-223q-109 0 -157 44.5t-48 155.5v350h115v-350q0 -64 19.5 -85t70.5 -21h107v456h116v-550z"/>
<glyph glyph-name="Korea1.18406" horiz-adv-x="562" unicode="ü" d="M244 700v-119h-121v119h121zM439 700v-119h-121v119h121zM493 -30h-223q-109 0 -157 44.5t-48 155.5v350h115v-350q0 -64 19.5 -85t70.5 -21h107v456h116v-550z"/>
<glyph glyph-name="Korea1.18407" horiz-adv-x="562" unicode="ý" d="M251 730h122l-91 -115q-15 -17 -29 -24t-39 -7h-49zM317 -239h-228v40q0 32 15.5 45t54.5 13h158q60 0 60 54v65q-54 -5 -137 -8h-10q-166 0 -166 179v371h116v-370q0 -44 13.5 -64.5t47.5 -20.5h2q47 1 134 9v446h116v-608q0 -68 -43.5 -109.5t-132.5 -41.5z"/>
</font>
</defs>
</svg>
